T-Forum, la vera HiFi alla portata di tutti
Benvenuto nel T-Forum!
Connettiti in modo da farti riconoscere come membro affezionato, oppure registrati così potrai partecipare attivamente alle discussioni.
Sondaggio

Ti piace il nuovo stile del T-Forum?

51% 51% [ 73 ]
49% 49% [ 70 ]

Totale dei voti : 143

Ultimi argomenti
» [AN] Monitor Audio BX2 black oak
Oggi alle 1:33 Da ghiglie

» ALIENTEK D8
Oggi alle 1:27 Da lorect

» Recensione personale Yamaha A-S701
Oggi alle 1:24 Da giucam61

» abrahamsen audio
Oggi alle 1:05 Da giucam61

» case per tpa3116
Oggi alle 1:01 Da Giovanni duck

» distanza crossover
Oggi alle 0:41 Da dinamanu

» R39 by Bellino
Ieri alle 23:29 Da Falco Maurizio

» Foobar e freedb
Ieri alle 22:53 Da Calbas

» è possibile che le valvole fischino?
Ieri alle 19:22 Da dinamanu

» Costruire casse per full range vintage.
Ieri alle 19:01 Da CHAOSFERE

» Technics SL 1200 Mk2
Ieri alle 16:09 Da Redcor

» Chromecast audio... aiuto per usarlo al meglio, adesso solo polvere
Ieri alle 9:47 Da sportyerre

» Monofonica con Rcf L12P540
Ieri alle 8:52 Da Giovanni duck

» Configurazione Impianto per usufruire musica liquida (TIDAL, NAS etc)
Mer 24 Mag 2017 - 23:31 Da Motogiullare

» Douk DAC (XMOS+PCM5102/DSD1796): ne vale la pena?
Mer 24 Mag 2017 - 22:57 Da joe1976

» Consiglio Ampli.
Mer 24 Mag 2017 - 22:41 Da Falco Maurizio

» Amplificatore con TDA2050
Mer 24 Mag 2017 - 20:13 Da corry24

» LP HiFi News Analogue Test Record +Thorens Td 295 mk4 + Ortofon 2M Blue
Mer 24 Mag 2017 - 19:24 Da giuseppe@scorzelli.it

» scanspeak sta' un pezzo avanti!
Mer 24 Mag 2017 - 16:43 Da dinamanu

» info Cavi per cuffia autocostruito
Mer 24 Mag 2017 - 11:59 Da Diesellolle

» Vendo preamplificatore FX Audio TUBE-01 40€
Mer 24 Mag 2017 - 11:44 Da Charli48

» Consiglio Cuffie In Ear
Mer 24 Mag 2017 - 11:33 Da Diesellolle

» Tweak Whaferdale Diamond 9.6
Mer 24 Mag 2017 - 11:32 Da TOC1981

» Emulatore Raspberry PI
Mer 24 Mag 2017 - 9:55 Da almo70

»  [BS+ss] Vendo dac Yulong ADA1 con inclusa scheda wi fi
Mer 24 Mag 2017 - 9:08 Da turo91

» wtfplay
Mar 23 Mag 2017 - 22:02 Da pallapippo

» Lettore ALL IN ONE definitivo
Mar 23 Mag 2017 - 19:19 Da RAIS

» Software APM Tool Lite
Mar 23 Mag 2017 - 18:46 Da gubos

» Nuova alimentazione per Virtue One
Mar 23 Mag 2017 - 18:19 Da silver surfer

» Conoscete questo valvolare 300b??
Mar 23 Mag 2017 - 14:30 Da Giovanni duck

Statistiche
Abbiamo 10820 membri registrati
L'ultimo utente registrato è craif

I nostri membri hanno inviato un totale di 786939 messaggi in 51136 argomenti
I postatori più attivi della settimana
giucam61
 
dinamanu
 
mecoc
 
Giovanni duck
 
sportyerre
 
nerone
 
Falco Maurizio
 
lorect
 
silver surfer
 
Seti
 

Migliori postatori
Stentor (20392)
 
DACCLOR65 (19630)
 
schwantz34 (15503)
 
Silver Black (15459)
 
nd1967 (12803)
 
flovato (12509)
 
Biagio De Simone (10261)
 
piero7 (9854)
 
wasky (9229)
 
fritznet (8997)
 

Chi è in linea
In totale ci sono 36 utenti in linea: 3 Registrati, 0 Nascosti e 33 Ospiti :: 2 Motori di ricerca

GGiovanni, icio1964, sportyerre

[ Vedere la lista completa ]


Il numero massimo di utenti online contemporaneamente è stato 4379 il Lun 25 Mag 2015 - 15:01
Flusso RSS


Yahoo! 
MSN 
AOL 
Netvibes 
Bloglines 


Bookmarking sociale

Bookmarking sociale Digg  Bookmarking sociale Delicious  Bookmarking sociale Reddit  Bookmarking sociale Stumbleupon  Bookmarking sociale Slashdot  Bookmarking sociale Yahoo  Bookmarking sociale Google  Bookmarking sociale Blinklist  Bookmarking sociale Blogmarks  Bookmarking sociale Technorati  




Conserva e condividi l'indirizzo di T-Forum, la vera HiFi alla portata di tutti sul tuo sito sociale bookmarking


Nasheim - Solens Vemod [DR12]

Vedere l'argomento precedente Vedere l'argomento seguente Andare in basso

Nasheim - Solens Vemod [DR12]

Messaggio  pij il Mar 20 Dic 2016 - 14:59

Un album black metal che suona bene. Surprised

foobar2000 1.3.10 / Dynamic Range Meter 1.1.1
log date: 2016-12-20 14:55:25

--------------------------------------------------------------------------------
Analyzed: Nasheim / Solens vemod
--------------------------------------------------------------------------------

DR         Peak         RMS     Duration Track
--------------------------------------------------------------------------------
DR12      -0.10 dB   -13.34 dB     13:30 01-En nyckel till drömmars grind
DR11      -0.10 dB   -13.46 dB     13:39 02-Jag fyller min bägare med tomhet
DR13      -0.10 dB   -14.06 dB     11:35 03-Att av ödets trådar väva sorg
DR11      -0.10 dB   -15.35 dB      9:24 04-Vördnad
--------------------------------------------------------------------------------

Number of tracks:  4
Official DR value: DR12

Samplerate:        44100 Hz
Channels:          2
Bits per sample:   16
Bitrate:           735 kbps
Codec:             FLAC
================================================================================

pij
Affezionato
Affezionato

Data d'iscrizione : 04.05.15
Numero di messaggi : 158
Provincia (Città) : Frosinone
Impianto : CDP: AMC CD8, Gira: Thorens TD321 / Linn Basik LVX / Linn K9, Amplificatore: HK AVR255.
Cuffie: Grado SR325e, Koss Porta Pro.

Tornare in alto Andare in basso

Re: Nasheim - Solens Vemod [DR12]

Messaggio  CHAOSFERE il Mar 20 Dic 2016 - 18:51

Northern Silence Production,
label che si sta facendo conoscere grazie all'elevata qualità delle proprie uscite.
Ho letto molte recensioni positive.
Magari facesse da "traino"....... Smile
avatar
CHAOSFERE
Membro classe bronzo
Membro classe bronzo

Data d'iscrizione : 04.04.15
Numero di messaggi : 1987
Provincia (Città) : Roma
Impianto : Ampli: Alientek D8
Pre: T-Preamp TCC TC-754
CD: Technics SL-PG 590
Giradischi: Technics SL B 200
Diffusori: AJ174 (DIY by Bellino)
Cavo: Star (DIY by TNT)
------------------------------------
Ampli: Topping TP30 Mark2
PC & Smartphone
Diffusori: Interpreter (DIY by Bellino)
Cavo: Star (DIY by TNT)
--------------------------------------
Ampli T-amp 2
Diffusori: anni 80 marca sconosciuta
PC & Smartphone
Cavo: Star (DIY by TNT)


Tornare in alto Andare in basso

Re: Nasheim - Solens Vemod [DR12]

Messaggio  CHAOSFERE il Mar 20 Dic 2016 - 18:58

http://www.northern-silence.de/files/releases.htm
avatar
CHAOSFERE
Membro classe bronzo
Membro classe bronzo

Data d'iscrizione : 04.04.15
Numero di messaggi : 1987
Provincia (Città) : Roma
Impianto : Ampli: Alientek D8
Pre: T-Preamp TCC TC-754
CD: Technics SL-PG 590
Giradischi: Technics SL B 200
Diffusori: AJ174 (DIY by Bellino)
Cavo: Star (DIY by TNT)
------------------------------------
Ampli: Topping TP30 Mark2
PC & Smartphone
Diffusori: Interpreter (DIY by Bellino)
Cavo: Star (DIY by TNT)
--------------------------------------
Ampli T-amp 2
Diffusori: anni 80 marca sconosciuta
PC & Smartphone
Cavo: Star (DIY by TNT)


Tornare in alto Andare in basso

Re: Nasheim - Solens Vemod [DR12]

Messaggio  Contenuto sponsorizzato


Contenuto sponsorizzato


Tornare in alto Andare in basso

Vedere l'argomento precedente Vedere l'argomento seguente Tornare in alto


 
Permessi di questa sezione del forum:
Non puoi rispondere agli argomenti in questo forum