T-Forum, la vera HiFi alla portata di tutti
Benvenuto nel T-Forum!
Connettiti in modo da farti riconoscere come membro affezionato, oppure registrati così potrai partecipare attivamente alle discussioni.

Unisciti al forum, è facile e veloce

T-Forum, la vera HiFi alla portata di tutti
Benvenuto nel T-Forum!
Connettiti in modo da farti riconoscere come membro affezionato, oppure registrati così potrai partecipare attivamente alle discussioni.
T-Forum, la vera HiFi alla portata di tutti
Vuoi reagire a questo messaggio? Crea un account in pochi click o accedi per continuare.

Franco Battiato - La Voce del Padrone (vinyl rip 24/96) [DR 13]

4 partecipanti

Andare in basso

Franco Battiato - La Voce del Padrone (vinyl rip 24/96) [DR 13] Empty Franco Battiato - La Voce del Padrone (vinyl rip 24/96) [DR 13]

Messaggio Da Nadir81 Lun 12 Mag 2014 - 21:18

oobar2000 1.1.11 / Dynamic Range Meter 1.1.1
log date: 2014-05-12 21:08:29

--------------------------------------------------------------------------------
Analyzed: ? / ?
--------------------------------------------------------------------------------

DR Peak RMS Duration Track
--------------------------------------------------------------------------------
DR12 -0.04 dB -15.25 dB 4:59 ?-01 Summer on a Solitary Beach
DR14 -0.35 dB -16.57 dB 5:23 ?-02 Bandiera Bianca
DR12 -0.30 dB -16.33 dB 4:43 ?-03 Gli Uccelli
DR13 -0.30 dB -14.46 dB 4:12 ?-04 Cuccuruccuccù
DR12 -0.14 dB -15.88 dB 3:38 ?-05 Segnali di Vita
DR13 -0.37 dB -16.17 dB 3:57 ?-06 Centro di Gravità Permanente
DR13 -0.32 dB -16.21 dB 4:22 ?-07 Il Sentimiento Nuevo
--------------------------------------------------------------------------------

Number of tracks: 7
Official DR value: DR13

Samplerate: 96000 Hz
Channels: 2
Bits per sample: 24
Bitrate: 2989 kbps
Codec: FLAC
================================================================================
Nadir81
Nadir81
Membro classe bronzo
Membro classe bronzo

Data d'iscrizione : 12.05.14
Numero di messaggi : 1904
Provincia : Via Lattea
Impianto : WTFPLAY su Notebook HP 8GB RAM
Scheda Audio: Topping D50 (Dual Sabre + XMOS XU208)
Cavo Usb: Pangea Premiere XL a Y (alimentazione e dati separati).
Speakers: Super Hi-Fi Box 650 Professional (1978)
Cavi di segnale: Ramm Audio Elite 7
Amp diffusori: Grundig V30 (1983)
Secondo amplificatore: Breeze Audio TPA3116 (2 x 55 W) +
alimentatore lineare Alpha Elettronica (20 V);
------------------------------------------------------------------
Amp cuffia: Lake People G100 Final Edition
Cuffie:
1) Sennheiser HD600 ricablata con cavo Oyaide hpc-63hdx v2
2) Alessandro MS1i con bowls pads + tape mod.


Torna in alto Andare in basso

Franco Battiato - La Voce del Padrone (vinyl rip 24/96) [DR 13] Empty Re: Franco Battiato - La Voce del Padrone (vinyl rip 24/96) [DR 13]

Messaggio Da bruraschi Gio 3 Mar 2016 - 21:39

Dove sono i link di download ?

bruraschi

Data d'iscrizione : 03.03.16
Numero di messaggi : 1
Provincia : .
Impianto : (non specificato)

Torna in alto Andare in basso

Franco Battiato - La Voce del Padrone (vinyl rip 24/96) [DR 13] Empty Franco Battiato Remasters 2008

Messaggio Da globo73 Mer 2 Giu 2021 - 7:35

Ciao Nadir81,
se possibile potrei avere un tuo giudizio sulla qualità audio del cd remaster 2008 de "La voce del padrone"?
Vorrei acquistare sia questo che "Mondi lontanissimi" e non saprei se orientarmi sulla versione originale o rimasterizzata. In genere odio i remasters perchè di qualità inferiore ma al momento risultano essere di facile reperibilità rispetto alle stampe originali.

Grazie

globo73

Data d'iscrizione : 11.09.10
Numero di messaggi : 1
Località : palermo
Impianto : HARMAN KARDON+ USHER

Torna in alto Andare in basso

Franco Battiato - La Voce del Padrone (vinyl rip 24/96) [DR 13] Empty Re: Franco Battiato - La Voce del Padrone (vinyl rip 24/96) [DR 13]

Messaggio Da daniele Ven 4 Giu 2021 - 22:30

se possibile cerca di prendere i cd prima edizione di battiato; il volume è piu basso, la dinamica superiore e la qualità generale del suono, migliore.
Spesso suonano quasi pari pari alla versione Lp.


daniele
Membro classe bronzo
Membro classe bronzo

Data d'iscrizione : 09.09.08
Numero di messaggi : 1736
Località : Via della Povertà
Occupazione/Hobby : Desolation Row
Impianto : Nad c565 bee
Leak Stereo 20
PRE Croft Micro
DAC Lampizator
Spendor Ls3/5a


Torna in alto Andare in basso

Franco Battiato - La Voce del Padrone (vinyl rip 24/96) [DR 13] Empty Re: Franco Battiato - La Voce del Padrone (vinyl rip 24/96) [DR 13]

Messaggio Da Contenuto sponsorizzato


Contenuto sponsorizzato


Torna in alto Andare in basso

Torna in alto


 
Permessi in questa sezione del forum:
Non puoi rispondere agli argomenti in questo forum.