T-Forum, la vera HiFi alla portata di tuttiAccedi

Benvenuto nell'unico forum in cui 11751 utenti, con i loro 818592 messaggi, hanno scelto di ascoltare con le orecchie, con il cuore e un occhio al portafoglio!

Nuovo look del T-Forum, dai un'occhiata qui.
Il T-Forum ha bisogno del tuo aiuto! Controlla se hai i requisiti necessari e proponiti.
Hai trovato uno spammer nel forum? Segnalalo subito all'amministrazione o a un moderatore!
Diamo il benvenuto ai nostri nuovi moderatori.
Chi sono i top postatori di oggi? Clicca qui per scoprirli.

Controlla qui gli argomenti attivi del giorno.


Condividi

descriptionLucio Battisti - Una Donna per Amico (1978, 24bit 192kHz da Archivio del Suono) DR15

more_horiz
La recente ristampa vinilica audiofila su "Archivio del Suono" dopo la ripulitura dei master analogici...valori davvero elevati, tre brani con DR16 e persino un DR18 (che non ho mai visto in un disco pop italiano).
Domani me lo "grundigizzo"....
--------------------------------------------------------------------------------
Analyzed: ? / ?
--------------------------------------------------------------------------------

DR Peak RMS Duration Track
--------------------------------------------------------------------------------
DR15 -1.99 dB -19.68 dB 7:49 ?-01 Prendila Così
DR14 -2.52 dB -20.97 dB 4:40 ?-02 Donna Selvaggia Donna
DR18 -0.61 dB -20.93 dB 5:50 ?-03 Aver Paura di Innamorarsi Troppo
DR14 -2.28 dB -20.62 dB 5:48 ?-04 Perché No
DR16 -0.82 dB -19.82 dB 6:17 ?-05 Nessun Dolore
DR16 -2.17 dB -20.08 dB 5:18 ?-06 Una Donna per Amico
DR16 -2.03 dB -20.91 dB 4:21 ?-07 Maledetto Gatto
DR14 -1.95 dB -19.79 dB 4:36 ?-08 Al Cinema
--------------------------------------------------------------------------------

Number of tracks: 8
Official DR value: DR15

Samplerate: 192000 Hz
Channels: 2
Bits per sample: 24

descriptionRe: Lucio Battisti - Una Donna per Amico (1978, 24bit 192kHz da Archivio del Suono) DR15

more_horiz
da ragazzo avevo il 45 nessun dolore/una donna per amico e si sentiva in modo incredibile
i file della varie versioni che ho ascoltato non si avvicinavano nemmeno lontanamente, compresa masters di archivio del suono
evidentemente come ascolto il 45 giri guadagna abbastanza rispetto al 33... per la velocità intendo... del resto registrare sul bobine a 7 1/2 rispetto a 3 3/4 faceva una bella differenza, la prima era praticamente indistinguibile dal disco... la seconda era un bel sentire ma c'era differenza con il disco
tu che sei immerso in questi sordidi scambi di file a contrabbando.... procurati il rip di quel 45 giri... e se lo trovi passamelo pure a me...

descriptionRe: Lucio Battisti - Una Donna per Amico (1978, 24bit 192kHz da Archivio del Suono) DR15

more_horiz
dove si trova sto disco?

descriptionRe: Lucio Battisti - Una Donna per Amico (1978, 24bit 192kHz da Archivio del Suono) DR15

more_horiz
Su amazon o IBS

descriptionRe: Lucio Battisti - Una Donna per Amico (1978, 24bit 192kHz da Archivio del Suono) DR15

more_horiz
Permessi di questa sezione del forum:
Non puoi rispondere agli argomenti in questo forum