T-Forum, la vera HiFi alla portata di tuttiAccedi

Benvenuto nell'unico forum in cui 11777 utenti, con i loro 820072 messaggi, hanno scelto di ascoltare con le orecchie, con il cuore e un occhio al portafoglio!

Nuovo look del T-Forum, dai un'occhiata qui.
Il T-Forum ha bisogno del tuo aiuto! Controlla se hai i requisiti necessari e proponiti.
Hai trovato uno spammer nel forum? Segnalalo subito all'amministrazione o a un moderatore!
Diamo il benvenuto ai nostri nuovi moderatori.
Chi sono i top postatori di oggi? Clicca qui per scoprirli.

Controlla qui gli argomenti attivi del giorno.


Condividi

descriptionMichael Jackson - Thriller (10.5 Mastertape Copy for Radio 15ips to 24bit/192) DR14

more_horiz
Ebbene, la miglior versione che abbia mai sentito. Trasferita a 24bit/192kHz da un Pioneer RT-1020L, Recorder a un TASCAM DR-100mkIII. Un lavoretto privato ovviamente, suono spettacolare.
La copia del mastertape θ datata dicembre 1982





foobar2000 1.3.17 / Dynamic Range Meter 1.1.1

log date: 2018-04-22 15:25:55
——————————————————————————–
Analyzed: Michael Jackson / Thriller
——————————————————————————–
DR Peak RMS Duration Track
——————————————————————————–
DR13 -0.92 dB -16.10 dB 6:04 01-Wanna Be Startin’ Somethin’
DR14 -1.09 dB -17.12 dB 4:21 02-Baby Be Mine
DR12 -0.51 dB -15.94 dB 3:43 03-The Girl Is Mine
DR13 0.00 dB -16.42 dB 5:59 04-Thriller
DR13 -1.15 dB -16.78 dB 4:21 05-Beat It
DR16 -0.23 dB -18.65 dB 4:53 06-Billie Jean
DR13 -2.40 dB -18.31 dB 4:07 07-Human Nature
DR14 -1.09 dB -16.92 dB 3:58 08-P.Y.T. (Pretty Young Thing)
DR14 -2.08 dB -20.94 dB 5:03 09-The Lady In My Life
——————————————————————————–
Number of tracks: 9
Official DR value: DR14
Samplerate: 192000 Hz
Channels: 2
Bits per sample: 24
Bitrate: 5438 kbps
Codec: FLAC

descriptionRe: Michael Jackson - Thriller (10.5 Mastertape Copy for Radio 15ips to 24bit/192) DR14

more_horiz
...e allora? Shocked
Permessi di questa sezione del forum:
Non puoi rispondere agli argomenti in questo forum