T-Forum, la vera HiFi alla portata di tutti
Benvenuto nel T-Forum!
Connettiti in modo da farti riconoscere come membro affezionato, oppure registrati cosμ potrai partecipare attivamente alle discussioni.
Sondaggio

Ti piace il nuovo stile del T-Forum?

51% 51% [ 73 ]
49% 49% [ 70 ]

Totale dei voti : 143

Ultimi argomenti
» Lettore cd Kenwood DP470
Oggi alle 14:12 Da Salvo600

» Consiglio preamplificatore lesahifi
Oggi alle 14:05 Da dinamanu

» [NA] Vendo Wadia 151 Power Dac - 350 euro spedito
Oggi alle 13:50 Da MrTheCarbon

» Consiglio: impianto si o no e cosa (poco spazio, max 600€)
Oggi alle 9:31 Da dinamanu

» Blood Sweat Tears
Ieri alle 23:21 Da andy65

» Quali album per iniziare ad ascoltare jazz?
Ieri alle 21:22 Da lello64

» ALIENTEK D8 [parte 2]
Ieri alle 19:54 Da giatz83

» Gilmour, Live at Pompeii
Ieri alle 19:31 Da fuscusmic

» SMSL M7: il dac definitivo alla portata di tutti?
Ieri alle 18:54 Da Nadir81

» Primo Impianto Hi-Fi
Ieri alle 18:01 Da dinamanu

» Technics SU-V2A
Ieri alle 15:50 Da Massimo Cogo

» JAZZ - Θ morto Hank Jones
Ieri alle 15:21 Da Albert^ONE

» Rimetto in vendita tutti i miei Blu-Ray
Ieri alle 12:07 Da wolfman

» ciς solo 200 euri.... le scinte e il cinesino.... oppure...
Mar 19 Set 2017 - 23:56 Da dinamanu

» [GE] CMoyy DIY potenziato - 60 € s.s. incluse
Mar 19 Set 2017 - 23:26 Da sh4d3

» The Oscar Peterson Trio - We Get Requests
Mar 19 Set 2017 - 21:29 Da andy65

» [cerco]Lettore CD da usare come meccanica
Mar 19 Set 2017 - 20:29 Da rattaman

» YAMAHA WX-A50 Qualcuno l'ha sentito?
Mar 19 Set 2017 - 17:02 Da Baron Birra

» [Vendo] SuperPro 707 DAC USB 3
Mar 19 Set 2017 - 16:49 Da dmnet75

» [MI + sped] Amplificatore per cuffie Yulong A28 classe A bilanciato garanzia perfetto
Mar 19 Set 2017 - 15:22 Da vale69

» Consiglio su amplificatore stereo
Mar 19 Set 2017 - 15:03 Da zermak

» Cyrus 3
Mar 19 Set 2017 - 14:40 Da Pinve

» Quale AB lΰ posto del D8 ?
Mar 19 Set 2017 - 14:21 Da dinamanu

» Charlie Haden che mito!
Mar 19 Set 2017 - 14:01 Da andy65

» Napoli Centrale
Mar 19 Set 2017 - 12:29 Da Ivan

» potenza Alientek D8 / FX 802
Mar 19 Set 2017 - 7:56 Da stefa

» Ricordando Miles Davis
Lun 18 Set 2017 - 22:23 Da andy65

» Marcus Miller Panther
Lun 18 Set 2017 - 22:20 Da andy65

» Vangelis - Blade runner
Lun 18 Set 2017 - 21:12 Da sportyerre

» Buste viniliche
Lun 18 Set 2017 - 20:40 Da andy65

Statistiche
Abbiamo 11025 membri registrati
L'ultimo utente registrato θ Salvo600

I nostri membri hanno inviato un totale di 795075 messaggi in 51559 argomenti
I postatori piω attivi della settimana
dinamanu
 
lello64
 
giucam61
 
nerone
 
andy65
 
Nadir81
 
Kha-Jinn
 
giatz83
 
pallapippo
 
Baron Birra
 

Migliori postatori
Stentor (20392)
 
DACCLOR65 (19633)
 
schwantz34 (15512)
 
Silver Black (15477)
 
nd1967 (12803)
 
flovato (12509)
 
Biagio De Simone (10275)
 
piero7 (9854)
 
wasky (9229)
 
fritznet (9180)
 

Chi θ in linea
In totale ci sono 74 utenti in linea: 7 Registrati, 1 Nascosto e 66 Ospiti :: 1 Motore di ricerca

cele, dinamanu, donluca, ginogino65, natale55, nuovo, Salvo600

[ Vedere la lista completa ]


Il numero massimo di utenti online contemporaneamente θ stato 4379 il Lun 25 Mag 2015 - 15:01
Flusso RSS


Yahoo! 
MSN 
AOL 
Netvibes 
Bloglines 


Bookmarking sociale

Bookmarking sociale Digg  Bookmarking sociale Delicious  Bookmarking sociale Reddit  Bookmarking sociale Stumbleupon  Bookmarking sociale Slashdot  Bookmarking sociale Yahoo  Bookmarking sociale Google  Bookmarking sociale Blinklist  Bookmarking sociale Blogmarks  Bookmarking sociale Technorati  




Conserva e condividi l'indirizzo di T-Forum, la vera HiFi alla portata di tutti sul tuo sito sociale bookmarking


Litfiba - Eutςpia (2016, vinyl 24bit/96kHz) - DR11

Vedere l'argomento precedente Vedere l'argomento seguente Andare in basso

Litfiba - Eutςpia (2016, vinyl 24bit/96kHz) - DR11

Messaggio  Nadir81 il Mar 20 Dic 2016 - 0:40

Vinyl rip professionale che mi son fatto fare in Germania dalla mia copia.

La fonte usata per la pressing θ il 32bit floating point nativo, con mastering piω dinamico e diverso dal mastering del cd. Informazioni riferitemi direttamente dall'ottimo Fabrizio Simoncioni, che ha curato il mastering del vinile negli USA.
Inutile dire che asfalta il cd (DR6) che pure non si sentiva mica male, una delle migliori compressioni che abbia sentito (Simoncioni ci sa fare: ad esempio ha evitato di processare digitalmente la batteria, che anche nella versione cd non suona mai tagliente e fastidiosa, ma molto analogica). 
Ma questo trasferimento θ tutt'altra storia...profonditΰ, aria, separazione e dettaglio superiori.


———————————————————————————————-
Analyzed folder: /96k Litfiba – Eutopia
———————————————————————————————-
DR        Peak        RMS        Filename
———————————————————————————————-
DR10        -1.63 dB     -13.86 dB     A1 Dio Del Tuono.aif
DR11        -0.61 dB     -14.19 dB     A2 L’Impossibile.aif
DR11        -1.17 dB     -14.14 dB     A3 Maria coraggio.aif
DR11        -1.23 dB     -13.55 dB     A4 Santi Di Periferia.aif
DR11        -0.96 dB     -13.85 dB     B1 Gorilla GO.aif
DR11        -0.89 dB     -14.63 dB     B2 In Nome Di Dio.aif
DR11        -2.05 dB     -16.34 dB     B3 Straniero.aif
DR10        -1.50 dB     -13.76 dB     C1 Intossicato.aif
DR11        -1.50 dB     -14.17 dB     C2 Oltre.aif
DR12        -0.84 dB     -15.11 dB     C3 Eutopia.aif
DR14        -0.87 dB     -16.34 dB     D1 La Danza Di Minerva.aif
DR9        -2.04 dB     -15.19 dB     D2 Tu Non C’Eri.aif
———————————————————————————————-
Number of files:    12
Official DR value:    DR11
avatar
Nadir81
Membro classe bronzo
Membro classe bronzo

Data d'iscrizione : 12.05.14
Numero di messaggi : 1197
Provincia (Cittΰ) : Via Lattea
Impianto : WTFPLAY su Asus Asrock
Scheda Audio: Weiliang DAC AK4399 upgradato con HDAM
Trasporto: Gustard U12 Xmos 384kHz 32 bit
Speakers: Wharfedale 10.1
Amp diffusori: Alientek D8 FDA + alimentatore lineare Alpha Elettronica (20 V);
Secondo amplificatore: Breeze Audio TPA3116 (2 x 55 W) +
Cavo Diffusori: Rca Transparent The Link 200
------------------------------------------------------------------
Amp cuffia: Little Dot 1+ con OPA2107 e valvole WE408A,
Cavo Ampli Cuffia: Mogami 2534 con connettori Nakamichi;
Cuffia: Alessandro MS1i con bowls pads + tape mod.


Tornare in alto Andare in basso

Re: Litfiba - Eutςpia (2016, vinyl 24bit/96kHz) - DR11

Messaggio  kondorrr il Lun 10 Lug 2017 - 13:42

How can I download here?

kondorrr

Data d'iscrizione : 10.07.17
Numero di messaggi : 1
Provincia (Cittΰ) : Russia
Impianto : (non specificato)

Tornare in alto Andare in basso

Re: Litfiba - Eutςpia (2016, vinyl 24bit/96kHz) - DR11

Messaggio  Nadir81 il Lun 10 Lug 2017 - 14:34

It's not possible. It's a personal copy (i bought the record), i'm only exposing the benefits of the higher quality vinyl master of this record.
avatar
Nadir81
Membro classe bronzo
Membro classe bronzo

Data d'iscrizione : 12.05.14
Numero di messaggi : 1197
Provincia (Cittΰ) : Via Lattea
Impianto : WTFPLAY su Asus Asrock
Scheda Audio: Weiliang DAC AK4399 upgradato con HDAM
Trasporto: Gustard U12 Xmos 384kHz 32 bit
Speakers: Wharfedale 10.1
Amp diffusori: Alientek D8 FDA + alimentatore lineare Alpha Elettronica (20 V);
Secondo amplificatore: Breeze Audio TPA3116 (2 x 55 W) +
Cavo Diffusori: Rca Transparent The Link 200
------------------------------------------------------------------
Amp cuffia: Little Dot 1+ con OPA2107 e valvole WE408A,
Cavo Ampli Cuffia: Mogami 2534 con connettori Nakamichi;
Cuffia: Alessandro MS1i con bowls pads + tape mod.


Tornare in alto Andare in basso

Re: Litfiba - Eutςpia (2016, vinyl 24bit/96kHz) - DR11

Messaggio  schwantz34 il Lun 10 Lug 2017 - 15:55

Nadir81 ha scritto:Vinyl rip professionale che mi son fatto fare in Germania dalla mia copia.

La fonte usata per la pressing θ il 32bit floating point nativo, con mastering piω dinamico e diverso dal mastering del cd. Informazioni riferitemi direttamente dall'ottimo Fabrizio Simoncioni, che ha curato il mastering del vinile negli USA.
Inutile dire che asfalta il cd (DR6) che pure non si sentiva mica male, una delle migliori compressioni che abbia sentito (Simoncioni ci sa fare: ad esempio ha evitato di processare digitalmente la batteria, che anche nella versione cd non suona mai tagliente e fastidiosa, ma molto analogica). 
Ma questo trasferimento θ tutt'altra storia...profonditΰ, aria, separazione e dettaglio superiori.


———————————————————————————————-
Analyzed folder: /96k Litfiba – Eutopia
———————————————————————————————-
DR        Peak        RMS        Filename
———————————————————————————————-
DR10        -1.63 dB     -13.86 dB     A1 Dio Del Tuono.aif
DR11        -0.61 dB     -14.19 dB     A2 L’Impossibile.aif
DR11        -1.17 dB     -14.14 dB     A3 Maria coraggio.aif
DR11        -1.23 dB     -13.55 dB     A4 Santi Di Periferia.aif
DR11        -0.96 dB     -13.85 dB     B1 Gorilla GO.aif
DR11        -0.89 dB     -14.63 dB     B2 In Nome Di Dio.aif
DR11        -2.05 dB     -16.34 dB     B3 Straniero.aif
DR10        -1.50 dB     -13.76 dB     C1 Intossicato.aif
DR11        -1.50 dB     -14.17 dB     C2 Oltre.aif
DR12        -0.84 dB     -15.11 dB     C3 Eutopia.aif
DR14        -0.87 dB     -16.34 dB     D1 La Danza Di Minerva.aif
DR9        -2.04 dB     -15.19 dB     D2 Tu Non C’Eri.aif
———————————————————————————————-
Number of files:    12
Official DR value:    DR11

considerando che i dischi dei litfiba non hanno mai brillato per qualita' sonora...
avatar
schwantz34
Membro classe diamante
Membro classe diamante

Data d'iscrizione : 28.10.08
Numero di messaggi : 15512
Localitΰ : Caerdydd
Provincia (Cittΰ) : Caerdydd
Impianto : minimalista, uso un vecchio walkman con gli auricolari...

Tornare in alto Andare in basso

Re: Litfiba - Eutςpia (2016, vinyl 24bit/96kHz) - DR11

Messaggio  Contenuto sponsorizzato


Contenuto sponsorizzato


Tornare in alto Andare in basso

Vedere l'argomento precedente Vedere l'argomento seguente Tornare in alto

- Argomenti simili

 
Permessi di questa sezione del forum:
Non puoi rispondere agli argomenti in questo forum