T-Forum, la vera HiFi alla portata di tuttiAccedi

Benvenuto nell'unico forum in cui 11777 utenti, con i loro 820081 messaggi, hanno scelto di ascoltare con le orecchie, con il cuore e un occhio al portafoglio!

Nuovo look del T-Forum, dai un'occhiata qui.
Il T-Forum ha bisogno del tuo aiuto! Controlla se hai i requisiti necessari e proponiti.
Hai trovato uno spammer nel forum? Segnalalo subito all'amministrazione o a un moderatore!
Diamo il benvenuto ai nostri nuovi moderatori.
Chi sono i top postatori di oggi? Clicca qui per scoprirli.

Controlla qui gli argomenti attivi del giorno.


Pink Floyd. Quali vinili o cd comprare?

Condividi

descriptionPink Floyd. Quali vinili o cd comprare?

more_horiz
Ciao, vorrei comprare qualche bell'album dei Pink Floyd, ho già Dark Side of the moon Smile

valutavo atom hearth, wish you were here, pulse, delicate sound of thunder, Meddle, Animals, The Wall.

A me piace il suono caldo, bel soundstage con suono avvolgente e dei bei bassi.

Mi suggerite qualche stampa in particolare in cd o vinile?

descriptionRe: Pink Floyd. Quali vinili o cd comprare?

more_horiz
In base a quello che cerchi senza dubbio The Wall, forse il sound più potente e "pirotecnico" tra tutti gli album dei Pink Floyd con dei bassi abbastanza presenti. Consigli: prime stampe in vinile, possibilmente inglesi, tedesche ma anche italiane (come quella che ho io, che è eccezionale) mentre in CD se riesci a procurartelo assolutamente la stampa della Columbia (C2K-36183) oppure la Harvest (CDP 7 46036 8 ) queste due sono le migliori in assoluto, o meglio quelle che preferisco io dopo aver sentito tutte le stampe sia in vinile che in cd.

descriptionRe: Pink Floyd. Quali vinili o cd comprare?

more_horiz
Sull'aspetto hifi non mi pronuncio, ma perchè privarsi dell' ascolto anche di The piper at the gates of dawn, A saucerful of secrets, Meddle, Ummagumma, Atom heart mother?


descriptionRe: Pink Floyd. Quali vinili o cd comprare?

more_horiz
Io sono di parte, e se ti piacciono i Pink Floyd penso che dovresti averli tutti Laughing
Ovvio che poi ho i miei preferiti, vedi avatar...
Oltre i gli ovvi (The Wall, Wish You Were Here etc...) a me piace A Momentary Lapse of Reason

descriptionRe: Pink Floyd. Quali vinili o cd comprare?

more_horiz
A me piacciono tutti, passo due mesi su un disco e poi cambio
Sul telefono ci sono fissi atom hearth mother suite e echoes
La mia colonna sonora

descriptionRe: Pink Floyd. Quali vinili o cd comprare?

more_horiz
pian piano vedo di scoprire anche gli altri album, vorrei giusto capire quali sono le stampe "giuste" in vinile, o magari meglio in cd Wink (dipende dalle stampe)


per esempio di the wall barcode 5 099916 341036, 16 3410 3, è Germany, pare buono ma ha una traccia con DR 6 Evil or Very Mad

descriptionRe: Pink Floyd. Quali vinili o cd comprare?

more_horiz
@Gio.audio-88 ha scritto:


per esempio di the wall barcode 5 099916 341036, 16 3410 3, è Germany, pare buono ma ha una traccia con  DR 6 Evil or Very Mad



Non significa niente, probabile sia un intermezzo o traccia breve compressa già in studio di suo. Il resto del DR è eccellente.
Sono convinto di questa ipotesi, anche perchè il cd MFSL (i cd MFSL sono rinomatissimi in ambito audiofilo) di The Wall ha una traccia con DR1 pur avendo quasi tutti DR12, DR13, DR14 e DR15.
Quindi se come penso quel DR6 del vinile tedesco è la traccia che sul cd ha DR1, è eccellente in relazione a come è nata la traccia.

descriptionRe: Pink Floyd. Quali vinili o cd comprare?

more_horiz
Come immaginavo, è Stop (solo 32 secondi).
Nella stampa giapponese ha DR2....buttati sulla tedesca, che ha DR6.

descriptionRe: Pink Floyd. Quali vinili o cd comprare?

more_horiz
@fritznet ha scritto:
Sull'aspetto hifi non mi pronuncio, ma perchè privarsi dell' ascolto  anche  di The piper at the gates of dawn, A saucerful of secrets, Meddle, Ummagumma, Atom heart mother?




Laughing Anche per me è così... anche fino a "The Final Cut".

Posso solodirvi quello che so' su The Wall: la prima stampa originale inglese era ottima, probabilmente non ne esistono di "migliori" e comunque quella italiana, sempre del 1979 e pochissimo dietro, all'epoca si facevano ancora le cose per bene! Non ho avuto la possibilità di ascoltare l'ultima ristampa in vinile del 2012, che è stata ristampata sia in US che in Europa, ma un coro in rete di "lascia perdere" mi ha convinto a non sprecare soldi per fare l'esperienza! Very Happy

descriptionRe: Pink Floyd. Quali vinili o cd comprare?

more_horiz
@Gio.audio-88 ha scritto:
pian piano vedo di scoprire anche gli altri album, vorrei giusto capire quali sono le stampe "giuste" in vinile, o magari meglio in cd Wink (dipende dalle stampe)


per esempio di the wall barcode 5 099916 341036, 16 3410 3, è Germany, pare buono ma ha una traccia con  DR 6 Evil or Very Mad



A me risulta essere una prima (forse) stampa francese, è quel DR in quella traccia è normale, anzì è tra i migliori come DR

descriptionRe: Pink Floyd. Quali vinili o cd comprare?

more_horiz
@emmeci ha scritto:
@fritznet ha scritto:
Sull'aspetto hifi non mi pronuncio, ma perchè privarsi dell' ascolto  anche  di The piper at the gates of dawn, A saucerful of secrets, Meddle, Ummagumma, Atom heart mother?




Laughing Anche per me è così... anche fino a "The Final Cut".

Posso solodirvi quello che so' su The Wall: la prima stampa originale inglese era ottima, probabilmente non ne esistono di "migliori" e comunque quella italiana, sempre del 1979 e pochissimo dietro, all'epoca si facevano ancora le cose per bene! Non ho avuto la possibilità di ascoltare l'ultima ristampa in vinile del 2012, che è stata ristampata sia in US che in Europa, ma un coro in rete di "lascia perdere" mi ha convinto a non sprecare soldi per fare l'esperienza!  Very Happy


Se intendi i remasters del 2011 (per intenderci i Discovery rimasterizzati da  James Guthrie) a me personalmente sono piaciuti solo Meddle (ma anche la MFSL è ottima) e Animals, mentre Dark Side e the wall li lascerei perdere pure io, non mi sono piaciuti, troppo spinti sia in basso che su gli alti, Dark sopratutto. Wish un po' meglio, ma ci sono edizioni molto migliori anche di quello.

descriptionRe: Pink Floyd. Quali vinili o cd comprare?

more_horiz
A me risulta essere una prima (forse) stampa francese, è quel DR in quella traccia è normale, anzì è tra i migliori come DR


I brani brevi in genere hanno DR scarso, poca lunghezza = poca possibilità di escursioni dinamiche. La loudness war non esisteva a fine anni '70, quindi lo scarso DR di una o due tracce brevi dipende anche da come è stato splittato il vinyl rip.
Stop ad esempio, se inizia con la botta finale del brano precedente avrà un DR diverso rispetto a una traccia vinyl rip che è stata splittata per iniziare direttamente con la parte di piano...c'è un abisso di differenza dinamica tra una Stop calcolata solo nella parte di piano e una Stop calcolata con la botta iniziale, come nel link due righe sotto.
Una volta il rumore iniziale di "posaggio puntina" fece salire il DR di un brano di ben 5 punti, stessa cosa accade calcolando diversamente l'inizio di Stop.

https://www.youtube.com/watch?v=8tunwcHnMPo

Pressing imprecisata su dr database

--------------------------------------------------------------------------------
Analyzed: Pink Floyd / The Wall
--------------------------------------------------------------------------------

DR         Peak         RMS     Duration Track
--------------------------------------------------------------------------------
DR13      -0.65 dB   -17.70 dB      3:19 01-In the Flesh?
DR14      -3.68 dB   -22.94 dB      2:24 02-The Thin Ice
DR13      -2.12 dB   -21.54 dB      3:45 03-Another Brick in the Wall, Part 1
DR15       0.00 dB   -19.57 dB      1:21 04-The Happiest Days of Our Lives
DR16      -2.87 dB   -21.60 dB      4:00 05-Another Brick in the Wall, Part 2
DR16      -2.57 dB   -23.13 dB      5:30 06-Mother
DR11      -9.42 dB   -23.87 dB      2:52 07-Goodbye Blue Sky
DR13      -4.93 dB   -22.70 dB      2:04 08-Empty Spaces
DR15      -1.67 dB   -18.89 dB      3:29 09-Young Lust
DR15      -0.03 dB   -20.70 dB      3:37 10-One of My Turns
DR14      -3.86 dB   -22.26 dB      4:16 11-Don’t Leave Me Now
DR16      -0.03 dB   -19.88 dB      1:33 12-Another Brick in the Wall, Part 3
DR8      -13.93 dB   -29.44 dB      0:57 13-Goodbye Cruel World
DR14      -2.48 dB   -21.38 dB      4:40 14-Hey You
DR15      -5.52 dB   -25.32 dB      2:57 15-Is There Anybody Out There?
DR13      -7.52 dB   -24.68 dB      3:30 16-Nobody Home
DR12      -9.44 dB   -24.34 dB      1:17 17-Vera
DR12      -0.03 dB   -18.14 dB      1:19 18-Bring the Boys Back Home
DR13      -2.85 dB   -18.41 dB      6:22 19-Comfortably Numb
DR14      -3.27 dB   -20.60 dB      1:39 20-The Show Must Go On
DR16      -0.84 dB   -19.37 dB      4:14 21-In the Flesh
DR16      -1.07 dB   -19.12 dB      4:25 22-Run Like Hell
DR14      -0.03 dB   -18.16 dB      3:55 23-Waiting for the Worms
DR12     -19.08 dB   -35.40 dB      0:35 24-Stop
DR14      -2.58 dB   -21.12 dB      5:14 25-The Trial
DR12     -19.99 dB   -37.98 dB      1:48 26-Outside the Wall
--------------------------------------------------------------------------------

Number of tracks:  26
Official DR value: DR14

Samplerate:        96000 Hz
Channels:          2
Bits per sample:   24
Bitrate:           2095 kbps
Codec:             FLAC
================================================================================


Altra Japan Pressing

--------------------------------------------------------------------------------
Analyzed: Pink Floyd / The Wall [JApan LP 1st pressing; DMR]
--------------------------------------------------------------------------------
*
DR         Peak         RMS     Duration Track
--------------------------------------------------------------------------------
DR12      -3.22 dB   -18.64 dB      3:22 01-In The Flesh?
DR14      -4.13 dB   -23.93 dB      2:31 02-The Thin Ice
DR14      -2.74 dB   -22.44 dB      3:16 03-Another Brick In The Wall - Part I
DR15      -0.76 dB   -20.54 dB      1:51 04-The Happiest Days Of Our Lives
DR16      -3.41 dB   -22.33 dB      4:04 05-Another Brick In The Wall - Part II
DR16      -3.55 dB   -23.87 dB      5:36 06-Mother
DR11     -11.24 dB   -25.28 dB      2:51 07-Goodbye Blue Sky
DR13      -8.32 dB   -24.65 dB      2:10 08-Empty Spaces
DR15      -2.41 dB   -20.21 dB      3:34 09-Young Lust
DR15      -0.28 dB   -22.06 dB      3:40 10-One Of My Turns
DR14      -4.34 dB   -23.87 dB      4:10 11-Don't Leave Me Now
DR16      -1.50 dB   -21.78 dB      1:52 12-Another Brick In The Wall - Part III
DR9      -16.65 dB   -31.13 dB      0:51 13-Goodbye Cruel World
DR14      -2.48 dB   -21.26 dB      4:45 14-Hey You
DR15      -5.53 dB   -24.92 dB      2:50 15-Is There Anybody Out There?
DR13      -7.59 dB   -24.43 dB      3:23 16-Nobody Home
DR12      -9.50 dB   -25.29 dB      1:39 17-Vera
DR12      -1.06 dB   -18.23 dB      1:21 18-Bring The Boys Back Home
DR13      -2.89 dB   -18.49 dB      6:29 19-Comfortably Numb
DR14      -4.22 dB   -20.89 dB      1:37 20-The Show Must Go On
DR16      -0.86 dB   -20.06 dB      4:19 21-In The Flesh
DR16      -1.45 dB   -19.25 dB      4:20 22-Run Like Hell
DR14      -1.25 dB   -18.79 dB      4:04 23-Waiting For The Worms
DR2       -1.70 dB   -28.35 dB      0:32 24-Stop
DR15      -2.85 dB   -21.85 dB      5:22 25-The Trial
DR12     -20.90 dB   -37.77 dB      1:47 26-Outside The Wall
--------------------------------------------------------------------------------


Pressing con mastering di Doug Sax

--------------------------------------------------------------------------------
Analyzed: Pink Floyd / The Wall [EMI 180g 2xLP-Set (2012 release); "DM series"]
--------------------------------------------------------------------------------
*
DR         Peak         RMS     Duration Track
--------------------------------------------------------------------------------
DR12      -0.72 dB   -18.03 dB      3:26 01-In The Flesh?
DR14      -3.07 dB   -21.84 dB      2:25 02-The Thin Ice
DR13      -1.66 dB   -22.11 dB      3:13 03-Another Brick In The Wall, Part 1
DR14      -0.91 dB   -18.96 dB      1:48 04-The Happiest Days In Our Lives
DR15      -2.05 dB   -19.72 dB      4:01 05-Another Brick In The Wall, Part 2
DR17      -1.30 dB   -22.15 dB      5:30 06-Mother
DR10      -7.57 dB   -20.84 dB      2:49 07-Goodbye Blue Sky
DR12      -3.43 dB   -21.49 dB      2:09 08-Empty Spaces
DR16      -0.78 dB   -19.01 dB      3:30 09-Young Lust
DR15      -1.65 dB   -21.48 dB      3:38 10-One Of My Turns
DR14      -2.91 dB   -21.71 dB      4:09 11-Don't Leave Me Now
DR15      -0.69 dB   -19.76 dB      1:50 12-Another Brick In The Wall, Part 3
DR7      -14.82 dB   -28.25 dB      0:48 13-Goodbye Cruel World
DR14      -1.24 dB   -19.18 dB      4:41 14-Hey you
DR14      -5.38 dB   -24.52 dB      2:47 15-Is There Anybody Out There?
DR12      -6.97 dB   -23.36 dB      3:24 16-Nobody Home
DR12      -7.94 dB   -24.12 dB      1:35 17-Vera
DR11      -5.02 dB   -20.81 dB      1:20 18-Bring the Boys Back Home
DR13      -0.99 dB   -16.87 dB      6:22 19-Comfortably Numb
DR14      -4.13 dB   -20.50 dB      1:37 20-The Show Must Go On
DR16      -0.67 dB   -19.54 dB      4:17 21-In The Flesh
DR16      -1.61 dB   -18.96 dB      4:21 22-Run Like Hell
DR12      -1.16 dB   -17.78 dB      4:01 23-Waiting For The Worms
DR12     -19.74 dB   -34.95 dB      0:34 24-Stop
DR15      -1.51 dB   -20.64 dB      5:15 25-The Trial
DR10     -18.12 dB   -35.07 dB      1:46 26-Outside The Wall
--------------------------------------------------------------------------------
*

descriptionRe: Pink Floyd. Quali vinili o cd comprare?

more_horiz
Notare come nei rip dove Stop ha DR elevato dura 34-35 secondi, mentre nel Japan rip con DR2 dura solo 32 secondi, proprio perché nello splittare il rip hanno escluso la botta iniziale (agganciandola alla fine del brano precedente, brano che infatti nel rip Japan dura quei 2-3 secondi in più rispetto agli altri rip), botta che produce un'escursione dinamica notevole con la parte "quiet" che viene immediatamente dopo.
In definitiva non tenete conto dei due brani brevi sotto il minuto (soggetti a oscillazioni a seconda di come sono splittati), guardate i DR di tutti gli altri brani.

descriptionRe: Pink Floyd. Quali vinili o cd comprare?

more_horiz
@Nadir81 ha scritto:
A me risulta essere una prima (forse) stampa francese, è quel DR in quella traccia è normale, anzì è tra i migliori come DR


I brani brevi in genere hanno DR scarso, poca lunghezza = poca possibilità di escursioni dinamiche. La loudness war non esisteva a fine anni '70, quindi lo scarso DR di una o due tracce brevi dipende anche da come è stato splittato il vinyl rip.
Stop ad esempio, se inizia con la botta finale del brano precedente avrà un DR diverso rispetto a una traccia vinyl rip che è stata splittata per iniziare direttamente con la parte di piano...c'è un abisso di differenza dinamica tra una Stop calcolata solo nella parte di piano e una Stop calcolata con la botta iniziale, come nel link due righe sotto.
Una volta il rumore iniziale di "posaggio puntina" fece salire il DR di un brano di ben 5 punti, stessa cosa accade calcolando diversamente l'inizio di Stop.

https://www.youtube.com/watch?v=8tunwcHnMPo

Pressing imprecisata su dr database

--------------------------------------------------------------------------------
Analyzed: Pink Floyd / The Wall
--------------------------------------------------------------------------------

DR         Peak         RMS     Duration Track
--------------------------------------------------------------------------------
DR13      -0.65 dB   -17.70 dB      3:19 01-In the Flesh?
DR14      -3.68 dB   -22.94 dB      2:24 02-The Thin Ice
DR13      -2.12 dB   -21.54 dB      3:45 03-Another Brick in the Wall, Part 1
DR15       0.00 dB   -19.57 dB      1:21 04-The Happiest Days of Our Lives
DR16      -2.87 dB   -21.60 dB      4:00 05-Another Brick in the Wall, Part 2
DR16      -2.57 dB   -23.13 dB      5:30 06-Mother
DR11      -9.42 dB   -23.87 dB      2:52 07-Goodbye Blue Sky
DR13      -4.93 dB   -22.70 dB      2:04 08-Empty Spaces
DR15      -1.67 dB   -18.89 dB      3:29 09-Young Lust
DR15      -0.03 dB   -20.70 dB      3:37 10-One of My Turns
DR14      -3.86 dB   -22.26 dB      4:16 11-Don’t Leave Me Now
DR16      -0.03 dB   -19.88 dB      1:33 12-Another Brick in the Wall, Part 3
DR8      -13.93 dB   -29.44 dB      0:57 13-Goodbye Cruel World
DR14      -2.48 dB   -21.38 dB      4:40 14-Hey You
DR15      -5.52 dB   -25.32 dB      2:57 15-Is There Anybody Out There?
DR13      -7.52 dB   -24.68 dB      3:30 16-Nobody Home
DR12      -9.44 dB   -24.34 dB      1:17 17-Vera
DR12      -0.03 dB   -18.14 dB      1:19 18-Bring the Boys Back Home
DR13      -2.85 dB   -18.41 dB      6:22 19-Comfortably Numb
DR14      -3.27 dB   -20.60 dB      1:39 20-The Show Must Go On
DR16      -0.84 dB   -19.37 dB      4:14 21-In the Flesh
DR16      -1.07 dB   -19.12 dB      4:25 22-Run Like Hell
DR14      -0.03 dB   -18.16 dB      3:55 23-Waiting for the Worms
DR12     -19.08 dB   -35.40 dB      0:35 24-Stop
DR14      -2.58 dB   -21.12 dB      5:14 25-The Trial
DR12     -19.99 dB   -37.98 dB      1:48 26-Outside the Wall
--------------------------------------------------------------------------------

Number of tracks:  26
Official DR value: DR14

Samplerate:        96000 Hz
Channels:          2
Bits per sample:   24
Bitrate:           2095 kbps
Codec:             FLAC
================================================================================


Altra Japan Pressing

--------------------------------------------------------------------------------
Analyzed: Pink Floyd / The Wall [JApan LP 1st pressing; DMR]
--------------------------------------------------------------------------------
*
DR         Peak         RMS     Duration Track
--------------------------------------------------------------------------------
DR12      -3.22 dB   -18.64 dB      3:22 01-In The Flesh?
DR14      -4.13 dB   -23.93 dB      2:31 02-The Thin Ice
DR14      -2.74 dB   -22.44 dB      3:16 03-Another Brick In The Wall - Part I
DR15      -0.76 dB   -20.54 dB      1:51 04-The Happiest Days Of Our Lives
DR16      -3.41 dB   -22.33 dB      4:04 05-Another Brick In The Wall - Part II
DR16      -3.55 dB   -23.87 dB      5:36 06-Mother
DR11     -11.24 dB   -25.28 dB      2:51 07-Goodbye Blue Sky
DR13      -8.32 dB   -24.65 dB      2:10 08-Empty Spaces
DR15      -2.41 dB   -20.21 dB      3:34 09-Young Lust
DR15      -0.28 dB   -22.06 dB      3:40 10-One Of My Turns
DR14      -4.34 dB   -23.87 dB      4:10 11-Don't Leave Me Now
DR16      -1.50 dB   -21.78 dB      1:52 12-Another Brick In The Wall - Part III
DR9      -16.65 dB   -31.13 dB      0:51 13-Goodbye Cruel World
DR14      -2.48 dB   -21.26 dB      4:45 14-Hey You
DR15      -5.53 dB   -24.92 dB      2:50 15-Is There Anybody Out There?
DR13      -7.59 dB   -24.43 dB      3:23 16-Nobody Home
DR12      -9.50 dB   -25.29 dB      1:39 17-Vera
DR12      -1.06 dB   -18.23 dB      1:21 18-Bring The Boys Back Home
DR13      -2.89 dB   -18.49 dB      6:29 19-Comfortably Numb
DR14      -4.22 dB   -20.89 dB      1:37 20-The Show Must Go On
DR16      -0.86 dB   -20.06 dB      4:19 21-In The Flesh
DR16      -1.45 dB   -19.25 dB      4:20 22-Run Like Hell
DR14      -1.25 dB   -18.79 dB      4:04 23-Waiting For The Worms
DR2       -1.70 dB   -28.35 dB      0:32 24-Stop
DR15      -2.85 dB   -21.85 dB      5:22 25-The Trial
DR12     -20.90 dB   -37.77 dB      1:47 26-Outside The Wall
--------------------------------------------------------------------------------


Pressing con mastering di Doug Sax

--------------------------------------------------------------------------------
Analyzed: Pink Floyd / The Wall [EMI 180g 2xLP-Set (2012 release); "DM series"]
--------------------------------------------------------------------------------
*
DR         Peak         RMS     Duration Track
--------------------------------------------------------------------------------
DR12      -0.72 dB   -18.03 dB      3:26 01-In The Flesh?
DR14      -3.07 dB   -21.84 dB      2:25 02-The Thin Ice
DR13      -1.66 dB   -22.11 dB      3:13 03-Another Brick In The Wall, Part 1
DR14      -0.91 dB   -18.96 dB      1:48 04-The Happiest Days In Our Lives
DR15      -2.05 dB   -19.72 dB      4:01 05-Another Brick In The Wall, Part 2
DR17      -1.30 dB   -22.15 dB      5:30 06-Mother
DR10      -7.57 dB   -20.84 dB      2:49 07-Goodbye Blue Sky
DR12      -3.43 dB   -21.49 dB      2:09 08-Empty Spaces
DR16      -0.78 dB   -19.01 dB      3:30 09-Young Lust
DR15      -1.65 dB   -21.48 dB      3:38 10-One Of My Turns
DR14      -2.91 dB   -21.71 dB      4:09 11-Don't Leave Me Now
DR15      -0.69 dB   -19.76 dB      1:50 12-Another Brick In The Wall, Part 3
DR7      -14.82 dB   -28.25 dB      0:48 13-Goodbye Cruel World
DR14      -1.24 dB   -19.18 dB      4:41 14-Hey you
DR14      -5.38 dB   -24.52 dB      2:47 15-Is There Anybody Out There?
DR12      -6.97 dB   -23.36 dB      3:24 16-Nobody Home
DR12      -7.94 dB   -24.12 dB      1:35 17-Vera
DR11      -5.02 dB   -20.81 dB      1:20 18-Bring the Boys Back Home
DR13      -0.99 dB   -16.87 dB      6:22 19-Comfortably Numb
DR14      -4.13 dB   -20.50 dB      1:37 20-The Show Must Go On
DR16      -0.67 dB   -19.54 dB      4:17 21-In The Flesh
DR16      -1.61 dB   -18.96 dB      4:21 22-Run Like Hell
DR12      -1.16 dB   -17.78 dB      4:01 23-Waiting For The Worms
DR12     -19.74 dB   -34.95 dB      0:34 24-Stop
DR15      -1.51 dB   -20.64 dB      5:15 25-The Trial
DR10     -18.12 dB   -35.07 dB      1:46 26-Outside The Wall
--------------------------------------------------------------------------------
*


In effetti è vero, non avevo pensato che la traccia Stop potrebbe avere un DR che viene contato con o senza "botta" a seconda di come viene effettuato il rip, dato che il vinile non è suddiviso in tracce. Siamo comunque d'accordo sul fatto che non c'è da preoccuparsi se quella traccia ha il DR alto

descriptionRe: Pink Floyd. Quali vinili o cd comprare?

more_horiz
Ho ascoltato meddle e non mi piace, the final cut sì e animal sì. Devo ancora ascoltare atom hearth mother, ummagumma.

Per il momento ricapitolando devo prendere wish you were here, the wall, final cut, animals e forse atom hearth mother e a momentary lapse.

Di wish you were here forse ho trovato la stampa giusta ma mi sfugge il codice, poi domani lo cerco.
Di the wall ho trovato la shdw411 che è UK, sembra un pelo peggio della 099916 341036 Germany, ma magari mi sbaglio, poi di final cut vada per 1C 064-65 042 Germany, di Animals ho trovato la SHVL815 UK che non so come sia e parlano bene di 1C 064-98 434 Germany ma anche di 7 46128 2 England, atom hearth mother la SHVL781 di cui non so nulla e mi fermo qui.

Sono indeciso, che mi dite? Di the wall per esempio meglio quela UK o la Germany che par meglio di poco?

descriptionRe: Pink Floyd. Quali vinili o cd comprare?

more_horiz
@Gio.audio-88 ha scritto:
Ho ascoltato meddle e non mi piace, the final cut sì e animal sì. Devo ancora ascoltare atom hearth mother, ummagumma.


Se non ti è piaciuto MEDDLE lascia perdere UMMAGUMMA Laughing Laughing Laughing

descriptionRe: Pink Floyd. Quali vinili o cd comprare?

more_horiz
hai azzeccato Dacclor, lo stavo ascoltando proprio fa, ma nulla, idem per atom hearth mother, non fa per me Sad


In fin dei conti oltre a DSOTM che già ho, sono sicuro di prendere in vinile WYWH, the wall e final cut.
Poi a momentary lapse non è affatto male, ma tra vinile e cd non sembra esserci sta grande differenza, probabile che prendo il cd.

Poi riguardo i live saranno miei Pulse e Delicate Sound Of Thunder, probabilmente in cd Sad

descriptionRe: Pink Floyd. Quali vinili o cd comprare?

more_horiz
@Gio.audio-88 ha scritto:
Ho ascoltato meddle e non mi piace, the final cut sì e animal sì. Devo ancora ascoltare atom hearth mother, ummagumma.

Per il momento ricapitolando devo prendere wish you were here, the wall, final cut, animals e forse atom hearth mother e a momentary lapse.

Di wish you were here forse ho trovato la stampa giusta ma mi sfugge il codice, poi domani lo cerco.
Di the wall ho trovato la shdw411 che è UK, sembra un pelo peggio della 099916 341036 Germany, ma magari mi sbaglio, poi di final cut vada per 1C 064-65 042 Germany, di Animals ho trovato la SHVL815 UK che non so come sia e parlano bene di 1C 064-98 434 Germany ma anche di 7 46128 2 England, atom hearth mother la SHVL781 di cui non so nulla e mi fermo qui.

Sono indeciso, che mi dite? Di the wall per esempio meglio quela UK o la Germany che par meglio di poco?


Assolutamente quella inglese dato che è una prima stampa, anche quella tedesca è ottima.

descriptionRe: Pink Floyd. Quali vinili o cd comprare?

more_horiz
Come mai preferisci quella Inglese?

Confrontandola con i DR di quella Tedesca sembra vinca quella Tedesca per la maggior qualità, sbaglio?

descriptionRe: Pink Floyd. Quali vinili o cd comprare?

more_horiz
Se ci sono differenze di un solo punto, può dipendere dal diverso setup (giradischi, cavi, testina etc.) usati per il rip.
Se la differenza in DR tra alcuni brani è da 2 punti in su, allora è più facile che la pressing sia di qualità superiore.
Io in generale preferisco spesso le stampe tedesche alle inglesi, perché suonano più silenziose.

descriptionRe: Pink Floyd. Quali vinili o cd comprare?

more_horiz
Ah, beh per esempio c'è una traccia che in quella Tedesca è dr 11 o 10, non ricordo, nell'altra è 9.
Hai già lanciato una sbirciata nel DR confrontando le 2 copie, la Tedesca e UK?

descriptionRe: Pink Floyd. Quali vinili o cd comprare?

more_horiz
Non ho visto, mi copi i log di DR qui?

descriptionRe: Pink Floyd. Quali vinili o cd comprare?

more_horiz
@Gio.audio-88 ha scritto:
Come mai preferisci quella Inglese?

Confrontandola con i DR di quella Tedesca sembra vinca quella Tedesca per la maggior qualità, sbaglio?


Non per forza un DR leggermente inferiore è sinonimo di qualità audio migliore, di solito le stampe inglesi hanno una maggiore dinamicità rispetto alle altre stampe, almeno alle mie orecchie, ma ripeto anche quella Tedesca è ottima, poi dipende dai gusti.

descriptionRe: Pink Floyd. Quali vinili o cd comprare?

more_horiz
@Gio.audio-88 ha scritto:
hai azzeccato Dacclor, lo stavo ascoltando proprio fa, ma nulla, idem per atom hearth mother, non fa per me Sad


In fin dei conti oltre a DSOTM che già ho, sono sicuro di prendere in vinile WYWH, the wall e final cut.
Poi a momentary lapse non è affatto male, ma tra vinile e cd non sembra esserci sta grande differenza, probabile che prendo il cd.

Poi riguardo i live saranno miei Pulse e Delicate Sound Of Thunder, probabilmente in cd Sad


prendi anche DIVISION BELL che è bellissimo! Wink

descriptionRe: Pink Floyd. Quali vinili o cd comprare?

more_horiz
@Nadir81 ha scritto:
Non ho visto, mi copi i log di DR qui?


ecco qua Smile

The Wall Germany

Artist Pink Floyd
Album The Wall [2-LP Vinyl]
Year 1979
Album DR 13
Min. track DR 06
Max. track DR 17
Track DR 12 14 12 15 16 16 11 13 13 14 13 17 13 10 14 16 12 12 12 12 13 15 15 13 06 13 13 (might not be in original order)
Codec Other lossless codec
Source Unknown
Label Emi Electrola GmbH / Harvest
Label code
Catalog number 16 3410 3
Bar code 5 099916 341036
Country Germany


mentre per la UK eccola qua:
Pink Floyd
Album The Wall Vinyl [96 kHz / 24 Bit] (Disc 2, Back)
Year 1979
Album DR 12
Min. track DR 02
Max. track DR 16
Track DR 13 16 16 12 02 13 12 (might not be in original order)
Codec Other lossless codec
Source Unknown
Label Harvest Records
Label code
Catalog number SHDW 411
Bar code
Country UK
Comment The Wall [SHDW 411] UK (Near Mint). Very strange result right here with the Stop track which seems to have a DR of 2. Without that track the average DR would be 14. foobar2000 1.2.3 / Dynamic Range Meter 1.1.1 -------------------------------------------------------------------------------- Analyzed: Pink Floyd / The Wall -------------------------------------------------------------------------------- DR Peak RMS Duration Track -------------------------------------------------------------------------------- DR13 -4.52 dB -20.82 dB 1:37 20-The Show Must Go On DR16 -1.00 dB -19.73 dB 4:14 21-In The Flesh DR16 -1.21 dB -19.59 dB 4:19 22-Run Like Hell DR12 -3.01 dB -18.68 dB 4:01 23-Waiting For The Worms DR2 -2.37 dB -27.63 dB 0:32 24-Stop DR13 -3.16 dB -21.34 dB 5:18 25-The Trial DR12 -20.57 dB -38.02 dB 1:45 26-Outside The Wall

Pink Floyd
Album The Wall Vinyl [96 kHz / 24 Bit] (Disc 2, Front)
Year 1979
Album DR 13
Min. track DR 11
Max. track DR 14
Track DR 14 14 12 12 11 12 (might not be in original order)
Codec Other lossless codec
Source Unknown
Label Harvest Records
Label code
Catalog number SHDW 411
Bar code
Country Uk
Comment The Wall [SHDW 411] UK (Near Mint). foobar2000 1.2.3 / Dynamic Range Meter 1.1.1 -------------------------------------------------------------------------------- Analyzed: Pink Floyd / The Wall -------------------------------------------------------------------------------- DR Peak RMS Duration Track -------------------------------------------------------------------------------- DR14 -2.58 dB -20.80 dB 4:41 14-Hey You DR14 -5.35 dB -24.95 dB 2:57 15-Is There Anybody Out There? DR12 -6.85 dB -23.20 dB 3:11 16-Nobody Home DR12 -8.16 dB -24.25 dB 1:33 17-Vera DR11 -1.61 dB -17.45 dB 1:22 18-Bring The Boys Back Home DR12 -2.24 dB -17.64 dB 6:21 19-Comfortably Numb

Pink Floyd
Album The Wall Vinyl [96 kHz / 24 Bit] (Disc 1, Back)
Year 1979
Album DR 13
Min. track DR 09
Max. track DR 15
Track DR 11 12 15 15 13 15 09 (might not be in original order)
Codec Other lossless codec
Source Unknown
Label Harvest Records
Label code
Catalog number SHDW 411
Bar code
Country UK
Comment The Wall [SHDW 411] UK (Near Mint). foobar2000 1.2.3 / Dynamic Range Meter 1.1.1 -------------------------------------------------------------------------------- Analyzed: Pink Floyd / The Wall -------------------------------------------------------------------------------- DR Peak RMS Duration Track -------------------------------------------------------------------------------- DR11 -7.62 dB -21.73 dB 2:47 07-Goodbye Blue Sky DR12 -5.35 dB -21.31 dB 2:07 08-Empty Spaces DR15 0.00 dB -17.45 dB 3:32 09-Young Lust DR15 0.00 dB -19.40 dB 3:34 10-One Of My Turns DR13 -2.97 dB -21.24 dB 4:16 11-Don't Leave Me Now DR15 0.00 dB -17.97 dB 1:17 12-Another Brick In The Wall (Part 3) DR9 -14.03 dB -29.01 dB 1:13 13-Goodbye Cruel World

Pink Floyd
Album The Wall Vinyl [96 kHz / 24 Bit] (Disc 1, Front)
Year 1979
Album DR 14
Min. track DR 12
Max. track DR 17
Track DR 12 13 14 15 16 17 (might not be in original order)
Codec Other lossless codec
Source Unknown
Label Harvest Records
Label code
Catalog number SHDW 411
Bar code
Country UK
Comment The Wall [SHDW 411] UK (Near Mint). foobar2000 1.2.3 / Dynamic Range Meter 1.1.1 -------------------------------------------------------------------------------- Analyzed: Pink Floyd / The Wall -------------------------------------------------------------------------------- DR Peak RMS Duration Track -------------------------------------------------------------------------------- DR12 0.00 dB -16.45 dB 3:19 01-In The Flesh? DR13 -3.25 dB -21.25 dB 2:29 02-The Thin Ice DR14 -0.96 dB -19.90 dB 3:11 03-Another Brick In The Wall (Part 1) DR15 -0.50 dB -18.12 dB 1:51 04-The Happiest Days Of Our Lives DR16 -0.27 dB -19.51 dB 4:00 05-Another Brick In The Wall (Part 2) DR17 -0.67 dB -21.61 dB 5:29 06-Mother

descriptionRe: Pink Floyd. Quali vinili o cd comprare?

more_horiz
Permessi di questa sezione del forum:
Non puoi rispondere agli argomenti in questo forum