T-Forum, la vera HiFi alla portata di tutti
Benvenuto nel T-Forum!
Connettiti in modo da farti riconoscere come membro affezionato, oppure registrati così potrai partecipare attivamente alle discussioni.
Ultimi argomenti
POPU VENUS Oggi alle 8:07giucam61
ALIENTEK D8Oggi alle 0:38giucam61
sky in wi fiIeri alle 17:21gigihrt
queIeri alle 14:11Allen smithee
simulazione largabandaGio 23 Mar 2017 - 22:05fritznet
(BA) Hi Face Two 70 euro.Gio 23 Mar 2017 - 18:16kryptos
Nuovi cavi potenzaGio 23 Mar 2017 - 16:19fabe-r
impianto entry -levelGio 23 Mar 2017 - 11:33zolugne
Primo giradischiGio 23 Mar 2017 - 0:25giucam61
Smsl ad18Mer 22 Mar 2017 - 19:57MaxDrou
(NA) Triangle MimimunMer 22 Mar 2017 - 13:17sonic63
Posso usare un ta 2024 Mar 21 Mar 2017 - 20:12RAIS
PC per la musicaMar 21 Mar 2017 - 17:45Snap
Vendo Cayin 220 CUMar 21 Mar 2017 - 15:22wolfman
[ARGHHH!!!] ;)Mar 21 Mar 2017 - 15:09Alessandro Marchese
Nad 1000 o nad c350Mar 21 Mar 2017 - 10:24Motogiullare
Sondaggio
Ti piace il nuovo stile del T-Forum?
Sì, meglio questo nuovo
52% / 16
No, era meglio quello vecchio
48% / 15
I postatori più attivi della settimana
69 Messaggi - 24%
63 Messaggi - 22%
45 Messaggi - 16%
18 Messaggi - 6%
18 Messaggi - 6%
17 Messaggi - 6%
16 Messaggi - 6%
15 Messaggi - 5%
15 Messaggi - 5%
13 Messaggi - 4%
I postatori più attivi del mese
267 Messaggi - 22%
236 Messaggi - 19%
142 Messaggi - 12%
135 Messaggi - 11%
105 Messaggi - 9%
77 Messaggi - 6%
75 Messaggi - 6%
68 Messaggi - 6%
64 Messaggi - 5%
61 Messaggi - 5%
Migliori postatori
Stentor (20392)
20392 Messaggi - 15%
DACCLOR65 (19630)
19630 Messaggi - 15%
schwantz34 (15499)
15499 Messaggi - 12%
Silver Black (15428)
15428 Messaggi - 11%
nd1967 (12803)
12803 Messaggi - 10%
flovato (12509)
12509 Messaggi - 9%
10260 Messaggi - 8%
piero7 (9854)
9854 Messaggi - 7%
wasky (9229)
9229 Messaggi - 7%
fritznet (8852)
8852 Messaggi - 7%
Chi è in linea
In totale ci sono 62 utenti in linea :: 7 Registrati, 1 Nascosto e 54 Ospiti :: 2 Motori di ricerca

Aunktintaun, cele, daniell65, dinamanu, kalium, landrupp, ringhio76

Vedere la lista completa

Flusso RSS

Yahoo! 
MSN 
AOL 
Netvibes 
Bloglines 
Bookmarking sociale
Bookmarking sociale Digg  Bookmarking sociale Delicious  Bookmarking sociale Reddit  Bookmarking sociale Stumbleupon  Bookmarking sociale Slashdot  Bookmarking sociale Yahoo  Bookmarking sociale Google  Bookmarking sociale Blinklist  Bookmarking sociale Blogmarks  Bookmarking sociale Technorati  




Conserva e condividi l'indirizzo di T-Forum, la vera HiFi alla portata di tutti sul tuo sito sociale bookmarking
Condividere
Vedere l'argomento precedenteAndare in bassoVedere l'argomento seguente
jogas
Interessato
Interessato
Data d'iscrizione : 20.12.11
Numero di messaggi : 26
Località : provincia di Lecco
Impianto : Xindak 6950 + E5 esound
Ampli push pull 300B autocostruito + pre Aikido
Casse TFS (Giussani)

Help con HRT Streamer II+

il Mer 22 Ott 2014 - 23:20
Ciao a tutti
vorrei chiedere un chiarimento agli esperti sul DAC in oggetto.
Oggi ho caricato su foobar "per sbaglio" un file con queste specifiche:

foobar2000 1.2.1 / Dynamic Range Meter 1.1.1
log date: 2013-01-18 22:42:20

--------------------------------------------------------------------------------
Analyzed: The Dave Brubeck Quartet / Time Out
--------------------------------------------------------------------------------

DR         Peak         RMS     Duration Track
--------------------------------------------------------------------------------
DR15      -0.12 dB   -19.86 dB      6:49 01-Blue Rondo à la Turk
DR15      -3.41 dB   -23.19 dB      7:26 02-Strange Meadow Lark
DR15      -1.14 dB   -20.33 dB      5:29 03-Take Five
DR15      -3.20 dB   -22.57 dB      5:27 04-Three To Get Ready
DR14      -5.47 dB   -23.13 dB      4:51 05-Kathy's Waltz
DR15      -2.12 dB   -22.12 dB      4:25 06-Everybody's Jumpin'
DR14      -4.98 dB   -23.15 dB      4:20 07-Pick Up Sticks
--------------------------------------------------------------------------------

Number of tracks:  7
Official DR value: DR15

Samplerate:        176400 Hz
Channels:          2
Bits per sample:   24
Bitrate:           6189 kbps
Codec:             FLAC
================================================================================

il mio HRT streamer II+ è collegato ad un  PC win 8.1 ma le specifiche del DAC dicono max  24/96...
la domanda è: perchè il DAC suona e vedo esattamente il bitrate 6189 kbps sull'interfaccia darkroom di foobar?
Dov'è l'inghippo? come fa il DAC a digerire il file a 176K?
Grazie per i chiarimenti
Giuseppe
jogas
Interessato
Interessato
Data d'iscrizione : 20.12.11
Numero di messaggi : 26
Località : provincia di Lecco
Impianto : Xindak 6950 + E5 esound
Ampli push pull 300B autocostruito + pre Aikido
Casse TFS (Giussani)

Re: Help con HRT Streamer II+

il Dom 26 Ott 2014 - 18:27
Ciao
non c'è proprio nessuno che ha provato l'HRT streamer II+ con file come il mio? Crying or Very sad
Giuseppe
Vedere l'argomento precedenteTornare in altoVedere l'argomento seguente
Permesso di questo forum:
Non puoi rispondere agli argomenti in questo forum