T-Forum, la vera HiFi alla portata di tutti
Benvenuto nel T-Forum!
Connettiti in modo da farti riconoscere come membro affezionato, oppure registrati così potrai partecipare attivamente alle discussioni.
Ultimi argomenti
» Disaccoppiamento Diffusori da stand
Oggi alle 2:33 Da robertopisa

» Ho ordinato i Batpure
Oggi alle 0:09 Da Zio

» tpa3255 vs tda8954
Ieri alle 23:56 Da franzfranz

» SMSL M7: il dac definitivo alla portata di tutti?
Ieri alle 23:52 Da djufuk87

» Calcolo litraggio avendo parametri woofer
Ieri alle 23:10 Da franzfranz

» De Andrè esegue cover dei trapper italiani di oggi
Ieri alle 23:08 Da lello64

» è ora di rivalvolare!
Ieri alle 22:14 Da erduca

» Dipolo con TB W8-2145 e 2 woofer Omnes audio -Clone trio 15 Pure audio-
Ieri alle 22:10 Da SubitoMauro

» Nuovo Impianto
Ieri alle 21:34 Da __Ale__

» scanspeak sta' un pezzo avanti!
Ieri alle 20:54 Da giucam61

» Tipo di box e calcolo litraggio FR10
Ieri alle 20:47 Da saltonm73

» TPA 3116
Ieri alle 20:43 Da embryo

» compatibilità casse
Ieri alle 20:37 Da franzfranz

» Vendo amplificatore integrato ibrido Peachtree iNova
Ieri alle 18:55 Da p.cristallini

» (Veneto) VENDO CHARIO CONSTELLATION PHOENIX
Ieri alle 17:57 Da simonluka

» (VI/ITALIA) Vendo Yamaha RX-V775 sintoamplificatore AV 7.2)
Ieri alle 17:57 Da simonluka

» (VI/ITALIA) Vendo Muse M20 EX2
Ieri alle 17:56 Da simonluka

» Sommer Cable Meridian 2x2.5mm
Ieri alle 16:25 Da Luca Marchetti

» Sommer Cable Meridian 2x2.5mm
Ieri alle 16:24 Da Luca Marchetti

» pilotare cerwin veg p10
Ieri alle 15:02 Da 22b5g41b5dw

» Nuovo Progetto od Upgradare il Vecchio?
Ieri alle 12:35 Da Alessiox

» rame con purezza 7N
Ieri alle 11:41 Da lello64

» [GE-MI] Vendo Celestion 3
Ieri alle 10:01 Da scontin

» Anniversario dei 10 anni!
Ieri alle 9:43 Da danilopace

» Preamplificatore...sono in vena di spendere soldi!
Ieri alle 9:36 Da danilopace

» L’angolo di paradiso di ITACA
Ieri alle 6:33 Da ITACA

» Impianto Home Theatre e Giradischi
Mer 21 Feb 2018 - 21:15 Da fabrizio6684

» consiglio per impianto "multiuso"
Mer 21 Feb 2018 - 21:06 Da fabrizio6684

» Problema stereo schneider
Mer 21 Feb 2018 - 20:19 Da Giuseppe1994

» Audioquest Forest usb
Mer 21 Feb 2018 - 19:25 Da wolfman

Statistiche
Abbiamo 11438 membri registrati
L'ultimo utente registrato è spillek

I nostri membri hanno inviato un totale di 807339 messaggi in 52393 argomenti
I postatori più attivi della settimana
lello64
 
22b5g41b5dw
 
franzfranz
 
giucam61
 
p.cristallini
 
Albert^ONE
 
scontin
 
SGH
 
sportyerre
 
erduca
 

Migliori postatori
Stentor (20392)
 
DACCLOR65 (19633)
 
schwantz34 (15551)
 
Silver Black (15513)
 
nd1967 (12810)
 
flovato (12509)
 
Biagio De Simone (10287)
 
piero7 (9854)
 
fritznet (9358)
 
wasky (9229)
 

Chi è in linea
In totale ci sono 28 utenti in linea: 0 Registrati, 0 Nascosti e 28 Ospiti :: 2 Motori di ricerca

Nessuno

[ Vedere la lista completa ]


Il numero massimo di utenti online contemporaneamente è stato 4379 il Lun 25 Mag 2015 - 15:01
Flusso RSS


Yahoo! 
MSN 
AOL 
Netvibes 
Bloglines 


Bookmarking sociale

Bookmarking sociale digg  Bookmarking sociale delicious  Bookmarking sociale reddit  Bookmarking sociale stumbleupon  Bookmarking sociale slashdot  Bookmarking sociale yahoo  Bookmarking sociale google  Bookmarking sociale blogmarks  Bookmarking sociale live      




Conserva e condividi l'indirizzo di T-Forum, la vera HiFi alla portata di tutti sul tuo sito sociale bookmarking


E i .... Gem Boy

Andare in basso

E i .... Gem Boy

Messaggio  Barone Rosso il Lun 14 Set 2009 - 18:35

Quelli che vedete non sono brani audiofili, ma bensì brani degli albori dei Gem Boy essenzialmente messi dentro a mp3 di bassa qualità (128 Kbs) e registrati in modo amatoriale (e spesso senza nessun criterio) e questo è risultato:

La maggior parte dei brani sono sopra il DR10 in un caso si arriva al DR16 e il DR12 è quasi la norma ....

La media è un buon DR11 (tenuto basso da pochi brani a bassa dinamica).

[Meditate gente]

http://www.gemboy.it/

----------------------------------------------------------------------------------------------
Analyzed folder: gem boy
----------------------------------------------------------------------------------------------
DR Peak RMS Filename
----------------------------------------------------------------------------------------------

DR11 over -12.26 dB Candy's.mp3
DR11 over -12.51 dB Capelli.mp3
DR13 over -13.67 dB Chanson d'amour.mp3
DR11 -0.55 dB -13.82 dB g-Gem Boy - Loro dicono, Loro pensano.mp3
DR10 over -11.10 dB Gem Boy - 2 di picche (strumentale).mp3
DR14 -2.85 dB -20.19 dB Gem Boy - 2001 Odissea Nello Spizio.mp3
DR9 over -10.94 dB Gem Boy - A Parigi (strumentale).mp3
DR10 -1.39 dB -14.59 dB Gem Boy - Albertone.mp3
DR10 -1.80 dB -15.35 dB Gem Boy - Amaro averna.mp3
DR3 over -4.15 dB Gem boy - Basket case.mp3
DR12 -2.28 dB -17.51 dB Gem Boy - Bimbe Ingenue.mp3
DR8 -5.96 dB -15.99 dB Gem Boy - Bologna Soccia (Live).mp3
DR9 -3.64 dB -17.64 dB Gem Boy - Bunker.mp3
DR9 over -11.07 dB Gem Boy - Candy intasata (strumentale).mp3
DR13 -0.00 dB -15.15 dB Gem Boy - Cappuccetto Rotto.mp3
DR9 over -10.67 dB Gem Boy - Carlo e Licia (strumentale).mp3
DR11 -3.06 dB -17.67 dB Gem Boy - Cetrioli.mp3
DR11 -2.02 dB -15.49 dB Gem Boy - Cinno Nazionale.mp3
DR11 -0.95 dB -14.72 dB Gem Boy - Come Mai Non E' La RAI.mp3
DR8 -3.91 dB -14.85 dB Gem Boy - Commenti dei Fans.mp3
DR11 -0.00 dB -14.05 dB Gem Boy - Cotton Fiock.mp3
DR8 -1.87 dB -11.20 dB Gem Boy - Donne Al Volante (Live).mp3
DR8 over -10.81 dB Gem Boy - Drin Drin (strumentale).mp3
DR10 -4.03 dB -16.86 dB Gem Boy - Dritto Moscio X (Lide Version).mp3
DR10 -3.44 dB -16.26 dB Gem Boy - F.I.G.A.mp3
DR10 -0.00 dB -12.31 dB Gem Boy - Faccio piano (strumentale).mp3
DR10 -0.00 dB -11.37 dB Gem Boy - Fastidiosa (strumentale).mp3
DR11 -3.00 dB -17.66 dB Gem Boy - Fatti Un Bide'.mp3
DR13 -3.64 dB -21.00 dB Gem Boy - Feccia Cartoon.mp3
DR12 -3.00 dB -18.28 dB Gem Boy - Federica.mp3
DR10 over -11.23 dB Gem Boy - Five days (bloody five days) (strumentale).mp3
DR11 -0.96 dB -17.39 dB Gem Boy - Forza Italia - inno.mp3
DR10 -5.16 dB -17.30 dB Gem Boy - Funky.mp3
DR9 -5.58 dB -18.91 dB Gem Boy - Fuori.mp3
DR11 -6.18 dB -21.72 dB Gem Boy - Gem Boy Is Back.mp3
DR11 over -14.25 dB Gem Boy - I 5 Funerali.mp3
DR15 -0.00 dB -16.66 dB Gem Boy - I Fantastici 4.mp3
DR9 -3.05 dB -14.89 dB Gem Boy - Il babbo permissivo.mp3
DR9 -1.28 dB -11.36 dB Gem Boy - Il Grande Prato (Live).mp3
DR9 -3.78 dB -15.20 dB Gem Boy - Il Grande Prato.mp3
DR11 -0.27 dB -13.27 dB Gem Boy - Il Guardone.mp3
DR11 -2.90 dB -18.32 dB Gem Boy - Il Mio Amico Pietro.mp3
DR10 -1.75 dB -15.64 dB Gem Boy - Il Trenino.mp3
DR11 -5.01 dB -18.48 dB Gem Boy - In Oriente.mp3
DR11 -4.97 dB -19.65 dB Gem Boy - L'Ultima Racchiona.mp3
DR11 -2.74 dB -17.58 dB Gem Boy - La Bistieca.mp3
DR8 -3.41 dB -13.81 dB Gem Boy - La Donna Del Monte.mp3
DR8 -2.44 dB -13.01 dB Gem Boy - La Festa Dello Zio (2).mp3
DR9 -0.00 dB -11.42 dB Gem Boy - La guerra di Piero.mp3
DR14 -1.15 dB -17.38 dB Gem Boy - La Mia Donna E' Un'Estetista.mp3
DR12 -13.69 dB -27.77 dB Gem Boy - La Nonna!.mp3
DR11 -2.16 dB -16.52 dB Gem Boy - La Piccola Ferita.mp3
DR12 -1.03 dB -15.22 dB Gem Boy - La Regola Del Becchino.mp3
DR10 -2.75 dB -15.98 dB Gem Boy - La Tua Scoria Tra Le Dita.mp3
DR8 -1.43 dB -10.95 dB Gem Boy - Le Cose Della Vita (Live).mp3
DR12 -1.60 dB -17.97 dB Gem Boy - Le Cose Della Vita.mp3
DR8 over -9.18 dB Gem Boy - Liquido.MP3
DR10 over -11.50 dB Gem Boy - Lo spettro del cervo volante (strumentale).mp3
DR11 -1.67 dB -14.93 dB Gem Boy - Lo Vendo.mp3
DR12 -3.28 dB -18.48 dB Gem Boy - Loro Dicono Loro Pensano.mp3
DR10 -0.00 dB -12.16 dB Gem Boy - Luna pork (strumentale).mp3
DR12 -1.99 dB -17.56 dB Gem Boy - Maglietta bianca.mp3
DR11 -1.61 dB -14.38 dB Gem Boy - Marijuana.mp3
DR14 -0.31 dB -16.29 dB Gem Boy - Merenda Piu'.mp3
DR14 -0.00 dB -16.68 dB Gem Boy - Microscopio.mp3
DR10 -1.58 dB -14.58 dB Gem Boy - Motel.mp3
DR12 -3.69 dB -18.55 dB Gem Boy - Musica.mp3
DR10 over -11.62 dB Gem Boy - Non Ci Stiamo Dentro Piu'.mp3
DR9 -3.29 dB -14.74 dB Gem Boy - Non Dire Mai.mp3
DR14 -2.71 dB -22.23 dB Gem Boy - Nuovo Furgone.mp3
DR12 -8.17 dB -23.44 dB Gem Boy - Oh Nonna!.mp3
DR13 -0.21 dB -16.55 dB Gem Boy - Ombre Asta La Vista.mp3
DR10 -3.36 dB -15.93 dB Gem Boy - Orgia Cartoon.mp3
DR11 -3.04 dB -17.81 dB Gem Boy - Panda Special.mp3
DR12 -1.38 dB -17.61 dB Gem Boy - Pane Pecurinu.mp3
DR11 -3.38 dB -17.41 dB Gem Boy - Per Calogero.mp3
DR8 -1.83 dB -11.08 dB Gem Boy - Perche' Aleandro Baldi Si Ed Io No.mp3
DR8 -2.40 dB -13.44 dB Gem Boy - Pinocchia.mp3
DR11 -2.72 dB -17.64 dB Gem Boy - Planet GB.mp3
DR12 -1.06 dB -16.53 dB Gem Boy - Praticamente Ovvio.mp3
DR10 -1.26 dB -13.57 dB Gem Boy - Promosso A Giugno.mp3
DR12 -3.94 dB -19.46 dB Gem Boy - Pubblimania.mp3
DR10 -0.75 dB -14.18 dB Gem Boy - Puttan Tour.mp3
DR10 -2.61 dB -17.05 dB Gem Boy - Quello Che Le Donne Non Fanno.mp3
DR16 -0.00 dB -17.68 dB Gem Boy - Ridammelo Lorena (2).mp3
DR10 -3.84 dB -18.68 dB Gem Boy - Salva I Giovani.mp3
DR12 -0.59 dB -15.96 dB Gem Boy - Scoreggi.mp3
DR8 -3.76 dB -14.32 dB Gem Boy - Scuba.mp3
DR9 -2.43 dB -15.31 dB Gem Boy - Scusa.mp3
DR9 -3.83 dB -15.99 dB Gem Boy - Se Non Succhi Non Sale (Live).mp3
DR9 over -10.91 dB Gem Boy - Se solo potessi (strumentale).mp3
DR12 -2.14 dB -19.54 dB Gem Boy - Secret Track.mp3
DR9 -0.00 dB -16.93 dB Gem Boy - Senza farsi un bidet.mp3
DR13 -1.08 dB -16.37 dB Gem Boy - Siero Positivo.mp3
DR12 -1.79 dB -17.37 dB Gem Boy - Sigla Apertura.mp3
DR12 -3.19 dB -20.03 dB Gem Boy - Sigla Chiusura.mp3
DR11 -3.06 dB -20.48 dB Gem Boy - Star Pack.mp3
DR11 -2.44 dB -17.00 dB Gem Boy - Teorema.mp3
DR10 over -10.86 dB Gem Boy - Teoria sulle modelle (strumentale).mp3
DR8 -6.11 dB -16.06 dB Gem Boy - Torero (Live).mp3
DR12 -2.23 dB -16.86 dB Gem Boy - Tostapane.mp3
DR9 -0.00 dB -10.63 dB Gem Boy - Tritanic (strumentale).mp3
DR11 -2.30 dB -15.70 dB Gem Boy - Ubriacone.mp3
DR16 -0.23 dB -17.26 dB Gem Boy - Uno Quattro Quattro.mp3
DR11 -3.73 dB -16.88 dB Gem Boy - Van Bene Tutte.mp3
DR10 -1.18 dB -13.89 dB Gem Boy - Vibrello.mp3
DR14 -0.00 dB -15.33 dB Gem Boy - Voglio Farla Finita.mp3
DR10 -5.93 dB -18.85 dB Gem Boy - W.W.F..mp3
DR8 -2.94 dB -14.16 dB Gem Boy - W.W.F.mp3
DR11 -0.00 dB -12.05 dB Gem Boy -Panda Special.mp3
DR11 -0.85 dB -13.80 dB GEM Boys - Orgia Cartoon .mp3
DR12 -0.59 dB -15.96 dB GEM Boys - Scoreggi.mp3
DR13 -1.08 dB -16.37 dB GEM Boys - SieroPositivo.mp3
DR7 over -9.58 dB GemBoy - Guerre Stellari.mp3
DR11 -0.00 dB -11.66 dB GemBoy - Tigerman.mp3
DR8 -10.87 dB -22.55 dB GemBoy-Abbiamo solo 10000.mp3
DR13 -6.41 dB -22.32 dB GemBoy-Cecchini Barnaba.mp3
DR11 -0.00 dB -12.42 dB GemBoy-Cetrioli.mp3
DR6 -13.24 dB -23.14 dB GemBoy-Chi ha scoreggiato.mp3
DR9 -9.93 dB -25.15 dB GemBoy-Ci siamo persi.mp3
DR9 -8.36 dB -20.42 dB GemBoy-Guadiamo il ruscello.mp3
DR12 -2.22 dB -15.91 dB GemBoy-PlanetGB.mp3
DR12 -5.96 dB -19.39 dB GemBoy-Tostapane.mp3
DR15 -0.00 dB -16.60 dB Gem_Boy_-_I_fantastici_4.mp3
DR11 over -12.52 dB Gilda.mp3
DR9 over -11.59 dB Ginecology - Spot 1.mp3
DR11 -0.00 dB -12.58 dB Ginecology - Spot 2.mp3
DR9 -0.00 dB -9.77 dB Ginecology - Spot 3.mp3
DR9 -0.00 dB -10.51 dB Ginecology - Spot 4.mp3
DR11 over -12.51 dB I migliori siamo noi.mp3
DR13 -0.75 dB -17.64 dB Ignorante.mp3
DR11 over -11.86 dB Ivo.mp3
----------------------------------------------------------------------------------------------

Number of files: 132
Official DR value: DR11

==============================================================================================
avatar
Barone Rosso
Moderatore
Moderatore

Data d'iscrizione : 24.03.08
Numero di messaggi : 8036
Località :
Provincia (Città) : Altrove
Impianto : Z + X = Y

Tornare in alto Andare in basso

Re: E i .... Gem Boy

Messaggio  mgiombi il Lun 14 Set 2009 - 18:54

@Barone Rosso ha scritto:

[Meditate gente]


Si stava meglio quando si stava peggio? Smile
avatar
mgiombi
Membro classe argento
Membro classe argento

Data d'iscrizione : 19.02.08
Numero di messaggi : 3107
Località : Pesaro
Provincia (Città) : Sinusoidale
Impianto :

Tornare in alto Andare in basso

Re: E i .... Gem Boy

Messaggio  Cthulhu il Lun 14 Set 2009 - 19:17

...era meglio quando c'erano gli SQUALLOR Very Happy
avatar
Cthulhu
Appassionato
Appassionato

Data d'iscrizione : 06.05.09
Numero di messaggi : 306
Località : Roma
Occupazione/Hobby : sempre incasinato/ad averci tempo!!!
Impianto : ....work in progress....

Tornare in alto Andare in basso

Re: E i .... Gem Boy

Messaggio  mgiombi il Lun 14 Set 2009 - 19:28

@Cthulhu ha scritto:...era meglio quando c'erano gli SQUALLOR Very Happy
Laughing
avatar
mgiombi
Membro classe argento
Membro classe argento

Data d'iscrizione : 19.02.08
Numero di messaggi : 3107
Località : Pesaro
Provincia (Città) : Sinusoidale
Impianto :

Tornare in alto Andare in basso

Re: E i .... Gem Boy

Messaggio  thema2000ie il Lun 14 Set 2009 - 21:21

Hai capito... Non me lo sarei mai aspettato! Ottimo! Clap
avatar
thema2000ie
Moderatore
Moderatore

Data d'iscrizione : 04.06.09
Numero di messaggi : 5002
Località : Via dei Matti, n.0
Impianto :

Tornare in alto Andare in basso

Re: E i .... Gem Boy

Messaggio  matsugara il Gio 31 Ago 2017 - 13:25

@Barone Rosso ha scritto:
DR11   over     -12.26 dB Candy's.mp3
DR11   over     -12.51 dB Capelli.mp3
DR13   over     -13.67 dB Chanson d'amour.mp3
DR11   over     -12.51 dB I migliori siamo noi.mp3
DR13  -0.75 dB -17.64 dB Ignorante.mp3
DR11   over     -11.86 dB Ivo.mp3

queste non sono dei Gemboy, ma fanno parte del primo demo dei Paolino Paperino Band...

matsugara
Interessato
Interessato

Data d'iscrizione : 21.11.13
Numero di messaggi : 22
Località : Fiorano Modenese
Provincia (Città) : Modena
Impianto : Amp NAD AV SSR T 743
Sp Bose Acousticmass 3
Amp Arcam A28
TT Thorens TD 206
Cdp NAD C521BEE
Sp ProAc Response D18


Tornare in alto Andare in basso

Re: E i .... Gem Boy

Messaggio  Contenuto sponsorizzato


Contenuto sponsorizzato


Tornare in alto Andare in basso

Tornare in alto


 
Permessi di questa sezione del forum:
Non puoi rispondere agli argomenti in questo forum