T-Forum, la vera HiFi alla portata di tutti
Benvenuto nel T-Forum!
Connettiti in modo da farti riconoscere come membro affezionato, oppure registrati così potrai partecipare attivamente alle discussioni.
Ultimi argomenti
» tappetino per giradischi
Oggi alle 1:05 Da giucam61

» Consiglio ragionato per upgrade diffusori
Oggi alle 1:04 Da nerone

» (CD)ilemma
Ieri alle 21:07 Da Fabio Menozzi

» [Vendo] Amplificatore cuffie Little Dot 1+ a 90 euro + s.s.
Ieri alle 21:01 Da Nadir81

» Google Home
Ieri alle 17:29 Da ftalien77

» Vinili Usati ? costano come nuovi !
Ieri alle 17:00 Da nerone

» ALIENTEK D8 [parte 2]
Ieri alle 15:14 Da almo70

» Ampli integrato classe AB tra i 500 e i 700 Euro
Ieri alle 14:50 Da danilopace

» Chiarimento su Dac e chromecast audio
Ieri alle 9:54 Da ftalien77

» Consiglio DAC/AMP per AKG K240 mkll
Gio 19 Lug 2018 - 21:35 Da mumps

» Ion Systems Obelisk 100 - amplinglese amato da Joe Akroyd (Royd Audio)
Gio 19 Lug 2018 - 18:52 Da mauz

» vendo cuffie sennheiser hd 598sr
Gio 19 Lug 2018 - 18:44 Da mumps

» Info QED profile audio, WW Luna 7, Mogami W3106 e Mogami W2964
Gio 19 Lug 2018 - 16:24 Da Alex23

» LT+sped) Prephono LesaHifi Archimede
Gio 19 Lug 2018 - 16:04 Da joe1976

» [VENDO] Cavi originali (due) per cuffie Sennheiser HD600 e HD650 a 16 EUR + S.S.
Gio 19 Lug 2018 - 15:49 Da Nadir81

» [Vendo] Grado extension cable originale 4,5 metri - 25 euro + spedizione
Gio 19 Lug 2018 - 15:28 Da Nadir81

» [VENDO] [ROMA/ITALIA] Perreaux SXH2 (Ampli cuffie) - 300€ inclusa spedizione
Gio 19 Lug 2018 - 15:21 Da donluca

» [VENDO] [ROMA/ITALIA] HiFiMan HE-400 (Cuffie) - 250€ spedizione inclusa
Gio 19 Lug 2018 - 15:19 Da donluca

» Che mi dite del Luxman lv-105?
Gio 19 Lug 2018 - 14:11 Da mauretto

» [RG+ sp] Ampl x cuffie Lehmann clone 30€ compreso sped.
Gio 19 Lug 2018 - 11:08 Da sportyerre

» Magnetofono Geloso G681
Mer 18 Lug 2018 - 21:38 Da sportyerre

» Chromecast Audio - Vostre opinioni ed esperienze
Mer 18 Lug 2018 - 15:18 Da ftalien77

» Come sparare da Chromecast AUDIO da NAS (no DLNA) con APP Android
Mer 18 Lug 2018 - 15:14 Da ftalien77

» Hard disk esterno per musica liquida
Mer 18 Lug 2018 - 8:25 Da almo70

» Cyrus one d
Mer 18 Lug 2018 - 7:27 Da GP9

» Comsiglio lettore cd/sacd "top gamma"
Mar 17 Lug 2018 - 16:23 Da gianni1879

» Canton CT-1000............ follia audiofila [mini-recensione]
Mar 17 Lug 2018 - 11:36 Da antimateria

» Vendo amplificatore integrato ibrido Peachtree iNova
Lun 16 Lug 2018 - 22:10 Da p.cristallini

» Cuffie home per pop rock.
Lun 16 Lug 2018 - 21:36 Da Adriano61

» Eliminare Bump
Lun 16 Lug 2018 - 17:18 Da Samuele

Statistiche
Abbiamo 11734 membri registrati
L'ultimo utente registrato è il napoletano

I nostri membri hanno inviato un totale di 815871 messaggi in 52966 argomenti
I postatori più attivi della settimana
lello64
 
Nadir81
 
mumps
 
nerone
 
ftalien77
 
antbom
 
Pinve
 
Olegol
 
potowatax
 
almo70
 

Migliori postatori
Stentor (20392)
 
DACCLOR65 (19633)
 
schwantz34 (15631)
 
Silver Black (15543)
 
nd1967 (12810)
 
flovato (12509)
 
Biagio De Simone (10302)
 
piero7 (9854)
 
fritznet (9642)
 
wasky (9229)
 

Chi è online?
In totale ci sono 38 utenti in linea: 4 Registrati, 0 Nascosti e 34 Ospiti :: 2 Motori di ricerca

brico, mumps, Nadir81, nerone

[ Vedere la lista completa ]


Il numero massimo di utenti online contemporaneamente è stato 4379 il Lun 25 Mag 2015 - 15:01
Flusso RSS


Yahoo! 
MSN 
AOL 
Netvibes 
Bloglines 


Bookmarking sociale

Bookmarking sociale digg  Bookmarking sociale delicious  Bookmarking sociale reddit  Bookmarking sociale stumbleupon  Bookmarking sociale slashdot  Bookmarking sociale yahoo  Bookmarking sociale google  Bookmarking sociale blogmarks  Bookmarking sociale live      




Conserva e condividi l'indirizzo di T-Forum, la vera HiFi alla portata di tutti sul tuo sito sociale bookmarking


[EAC] Error in cue sheet

Andare in basso

[EAC] Error in cue sheet

Messaggio  ingemar il Lun 17 Ago 2009 - 0:36

E' da un po' che recupero (legalmente!) file .flac da masterizzarmi su cd con EAC. Tutti ben rippati (sempre con EAC) e accompagnati da file .cue.
Quando lancuio quest'ultimo, a vole funziona e mi crea un bellissimo cd con indici come dovrebbero essere, in altri casi ricevo un messaggio di errore come questo
e la riga 7 è il nome del file tra virgolette
Sia che converta con flac frontend che lasci così il flac (lasciando convertire ad EAC), non riesco a venirne a capo. Googlando sembrebebbe che il nome del file sia diverso da quello sul cue, ma non è così. Il .cue è, dove dovrebbe essere, nel folder insieme ai flac (e ai wav). Non so neanche come editarlo, a questo punto, visto che tutto corrisponde (e, soprattutto, non dovrebbe esserci incompatibilità tra un .cue creato ieri da EAC e la sua reversibilità, sempre su EAC)
Visto che è un problema che riscontro assai spesso, non è possibile che io sia l'unico, quindi chiedo: voi come risolvete?
Rolling Eyes

allego, per conoscenza, tutto il file .cue, se può essere d'aiuto (spero di sì!)

Codice:
REM GENRE Various
REM DATE 2009
REM DISCID B30AF00D
REM COMMENT "ExactAudioCopy v0.99pb4"
PERFORMER "Various"
TITLE "Jónsi & Alex - Rain Down My Favorite Songs"
FILE "01 - Natalia Janotha - The Celebrated Polish Carillon using only the upper three keys of the piano'.wav" WAVE
  TRACK 01 AUDIO
    TITLE "The Celebrated Polish Carillon using only the upper three keys of the piano''"
    PERFORMER "Natalia Janotha"
    INDEX 01 00:00:00
  TRACK 02 AUDIO
    TITLE "Ave Maria"
    PERFORMER "Alessandro Moreschi"
    INDEX 00 00:55:51
FILE "02 - Alessandro Moreschi - Ave Maria.wav" WAVE
    INDEX 01 00:00:00
  TRACK 03 AUDIO
    TITLE "Voggubarnsins Mál"
    PERFORMER "Smárakvartettinn Á Akureyri"
    INDEX 00 03:14:02
FILE "03 - Smárakvartettinn Á Akureyri - Voggubarnsins Mál.wav" WAVE
    INDEX 01 00:00:00
  TRACK 04 AUDIO
    TITLE "Mother's Last Word To Her Son"
    PERFORMER "Washington Phillips"
    INDEX 00 02:46:31
FILE "04 - Washington Phillips - Mother's Last Word To Her Son.wav" WAVE
    INDEX 01 00:00:00
FILE "05 - Django Reinhardt - Doux Sourire.wav" WAVE
  TRACK 05 AUDIO
    TITLE "Doux Sourire"
    PERFORMER "Django Reinhardt"
    INDEX 01 00:00:00
  TRACK 06 AUDIO
    TITLE "The Gypsie Laddie"
    PERFORMER "John Jacob Niles"
    INDEX 00 02:49:69
FILE "06 - John Jacob Niles - The Gypsie Laddie.wav" WAVE
    INDEX 01 00:00:00
  TRACK 07 AUDIO
    TITLE "I Can't Believe You're In Love With Me"
    PERFORMER "Billie Holiday"
    INDEX 00 03:32:65
FILE "07 - Billie Holiday - I Can't Believe You're In Love With Me.wav" WAVE
    INDEX 01 00:00:00
  TRACK 08 AUDIO
    TITLE "Parlez-Moi D'Amour"
    PERFORMER "Lucienne Boyer"
    INDEX 00 02:49:43
FILE "08 - Lucienne Boyer - Parlez-Moi D'Amour.wav" WAVE
    INDEX 01 00:00:00
  TRACK 09 AUDIO
    TITLE "Marche Funèbre"
    PERFORMER "Raoul Pugno"
    INDEX 00 02:57:13
FILE "09 - Raoul Pugno - Marche Funèbre.wav" WAVE
    INDEX 01 00:00:00
FILE "10 - Audrey Hepburn - Moon River.wav" WAVE
  TRACK 10 AUDIO
    TITLE "Moon River"
    PERFORMER "Audrey Hepburn"
    INDEX 01 00:00:00
  TRACK 11 AUDIO
    TITLE "John Cassevetes (2)"
    PERFORMER "Ekkehard Ehlers"
    INDEX 00 02:02:72
FILE "11 - Ekkehard Ehlers - John Cassevetes (2).wav" WAVE
    INDEX 01 00:00:00
  TRACK 12 AUDIO
    TITLE "A Candy Coated Slow Down"
    PERFORMER "John Somers"
    INDEX 00 09:57:51
FILE "12 - John Somers - A Candy Coated Slow Down.wav" WAVE
    INDEX 01 00:00:00
  TRACK 13 AUDIO
    TITLE "When You Wish Upon A Star"
    PERFORMER "Cliff 'Ukulele Ike' Edwards"
    INDEX 00 05:04:30
FILE "13 - Cliff 'Ukulele Ike' Edwards - When You Wish Upon A Star.wav" WAVE
    INDEX 01 00:00:00


Ultima modifica di ingemar il Lun 17 Ago 2009 - 13:41, modificato 1 volta
avatar
ingemar
Membro classe bronzo
Membro classe bronzo

Data d'iscrizione : 01.04.09
Numero di messaggi : 1578
Località : GE
Impianto : sorgenti: Marantz CD63SE, SYSTEMDEK IIX con Stanton 681 EEE MkII-S;
pre: QUAD 33
finale: QUAD 303;
speaker: Tannoy Cambridge T-115

http://www.yellowblueandgreen.com/

Torna in alto Andare in basso

Re: [EAC] Error in cue sheet

Messaggio  pippo1999 il Lun 17 Ago 2009 - 1:03

accorcia il nome del file .wav

pippo1999
Affezionato
Affezionato

Data d'iscrizione : 02.07.09
Numero di messaggi : 117
Località : Provincia di Napoli
Occupazione/Hobby : Programmatore / Ciclismo, musica
Impianto : PopPulse T150+Chario s200+Wap 2200+Dac 707 usb, Ta3020+Klipsh RF82

Torna in alto Andare in basso

Re: [EAC] Error in cue sheet

Messaggio  ingemar il Lun 17 Ago 2009 - 1:13

@pippo1999 ha scritto:accorcia il nome del file .wav

intendi del primo? niente, stesso errore, anche dimezzando la lunghezza...
avatar
ingemar
Membro classe bronzo
Membro classe bronzo

Data d'iscrizione : 01.04.09
Numero di messaggi : 1578
Località : GE
Impianto : sorgenti: Marantz CD63SE, SYSTEMDEK IIX con Stanton 681 EEE MkII-S;
pre: QUAD 33
finale: QUAD 303;
speaker: Tannoy Cambridge T-115

http://www.yellowblueandgreen.com/

Torna in alto Andare in basso

Re: [EAC] Error in cue sheet

Messaggio  Silver Black il Lun 17 Ago 2009 - 2:10

Ma questo:

Codice:
01 - Natalia Janotha - The Celebrated Polish Carillon using only the upper three keys of the piano'.wav

Equivale al nome del file .wav nella cartella corretta? Cos'è quell'apostrofo dopo la parola "piano"? Rinomina file e stringa cosi:

Codice:
01 - Natalia Janotha - The Celebrated Polish Carillon.wav

Facci sapere.

_________________
T-Forum, non solo classe T.
www.tforumhifi.com

Se ti piace la fotografia iscriviti a Lucegrafia, il gruppo di fotografia per veri appassionati!
"Una fotografia prima la senti, poi la vedi". (Fabrizio Guerra, fotografo)
www.facebook.com/groups/lucegrafia
avatar
Silver Black
Amministratore
Amministratore

Data d'iscrizione : 04.02.08
Numero di messaggi : 15543
Località : Veneto, Italia
Occupazione/Hobby : Sviluppatore software - Istruttore di Muay Thai - Personal Trainer
Provincia (Città) : Vicenza (Bassano del Grappa)
Impianto :
Spoiler:
Impianto: ampli: VirtueTwo.2 + JT Dynamic Power Supply (30V, 10A, 300W); diffusori: Proson Conquest 6030 MKII; sorgente: Oppo DV970; cavi segnale: Monster Cable MKII; cavi potenza: Qed Micro






http://www.silvercybertech.com

Torna in alto Andare in basso

Re: [EAC] Error in cue sheet

Messaggio  Smanetton il Lun 17 Ago 2009 - 7:22

@ingemar ha scritto:Quando lancio quest'ultimo, a vole funziona e mi crea un bellissimo cd con indici come dovrebbero essere, in altri casi ricevo un messaggio di errore come questo
e la riga 7 è il nome del file tra virgolette
Il perché questo succede non lo so e non ho mai indagato. Ma soluzione al problema è semplicissima.
Dopo aver aperto il file .cue con un editor di testo (Notepad va benissimo), si modifica il nome del file in esso presente, rendendolo esattamente identico a quello del file .flac / .ape / .wav esistente.
Poi si chiude salvando il file .cue e il gioco è fatto.

Quindi:
Codice:
...
FILE "01 - Natalia Janotha - The Celebrated Polish Carillon using only the upper three keys of the piano.flac" WAVE
...
e nome file:
01 - Natalia Janotha - The Celebrated Polish Carillon using only the upper three keys of the piano.flac
avatar
Smanetton
Membro classe argento
Membro classe argento

Data d'iscrizione : 30.08.08
Numero di messaggi : 2888
Località : Torino
Occupazione/Hobby : Troooppo interessanti!
Provincia (Città) : Torino
Impianto : Nel campo centrale: PC, WaveIo+Audio-gd NFB-12, Notsobad A2x-pro (TA2024 al top!), Mission 780. Nei campi laterali: altri campioni Tripath.

Torna in alto Andare in basso

Re: [EAC] Error in cue sheet

Messaggio  ingemar il Lun 17 Ago 2009 - 7:57

proverò nel pomeriggio. grassie!
avatar
ingemar
Membro classe bronzo
Membro classe bronzo

Data d'iscrizione : 01.04.09
Numero di messaggi : 1578
Località : GE
Impianto : sorgenti: Marantz CD63SE, SYSTEMDEK IIX con Stanton 681 EEE MkII-S;
pre: QUAD 33
finale: QUAD 303;
speaker: Tannoy Cambridge T-115

http://www.yellowblueandgreen.com/

Torna in alto Andare in basso

Re: [EAC] Error in cue sheet

Messaggio  Radiofaro il Lun 17 Ago 2009 - 13:21

@Smanetton ha scritto:
@ingemar ha scritto:Quando lancio quest'ultimo, a vole funziona e mi crea un bellissimo cd con indici come dovrebbero essere, in altri casi ricevo un messaggio di errore come questo
e la riga 7 è il nome del file tra virgolette
Il perché questo succede non lo so e non ho mai indagato. Ma soluzione al problema è semplicissima.
Dopo aver aperto il file .cue con un editor di testo (Notepad va benissimo), si modifica il nome del file in esso presente, rendendolo esattamente identico a quello del file .flac / .ape / .wav esistente.
Poi si chiude salvando il file .cue e il gioco è fatto.

Quindi:
Codice:
...
FILE "01 - Natalia Janotha - The Celebrated Polish Carillon using only the upper three keys of the piano.flac" WAVE
...
e nome file:
01 - Natalia Janotha - The Celebrated Polish Carillon using only the upper three keys of the piano.flac

grazie allo "Smanetton" , con lo splendido EAC me la cavo benino;
cambia l'estensione del file da .wav a .ape vedrai che funziona
avatar
Radiofaro
Membro classe argento
Membro classe argento

Data d'iscrizione : 09.02.09
Numero di messaggi : 2149
Località : Puglia
Impianto : Denon PMA 1500 AE, sorgente CDP 1500 AE, diffusori Proson 6020 mk2 (Ciarizzate), cavi di potenza: Dustùtz cable; cavi segnale: byVicè

Torna in alto Andare in basso

Re: [EAC] Error in cue sheet

Messaggio  Silver Black il Lun 17 Ago 2009 - 13:44

Beh certo: il nome del file nel codice dev'essere IDENTICO a quello del nome del file reale, quindi anche l'estensione! Idea

_________________
T-Forum, non solo classe T.
www.tforumhifi.com

Se ti piace la fotografia iscriviti a Lucegrafia, il gruppo di fotografia per veri appassionati!
"Una fotografia prima la senti, poi la vedi". (Fabrizio Guerra, fotografo)
www.facebook.com/groups/lucegrafia
avatar
Silver Black
Amministratore
Amministratore

Data d'iscrizione : 04.02.08
Numero di messaggi : 15543
Località : Veneto, Italia
Occupazione/Hobby : Sviluppatore software - Istruttore di Muay Thai - Personal Trainer
Provincia (Città) : Vicenza (Bassano del Grappa)
Impianto :
Spoiler:
Impianto: ampli: VirtueTwo.2 + JT Dynamic Power Supply (30V, 10A, 300W); diffusori: Proson Conquest 6030 MKII; sorgente: Oppo DV970; cavi segnale: Monster Cable MKII; cavi potenza: Qed Micro






http://www.silvercybertech.com

Torna in alto Andare in basso

Re: [EAC] Error in cue sheet

Messaggio  ingemar il Lun 17 Ago 2009 - 13:47

@Silver Black ha scritto:Ma questo:

Codice:
01 - Natalia Janotha - The Celebrated Polish Carillon using only the upper three keys of the piano'.wav

Equivale al nome del file .wav nella cartella corretta? Cos'è quell'apostrofo dopo la parola "piano"? Rinomina file e stringa cosi:

Codice:
01 - Natalia Janotha - The Celebrated Polish Carillon.wav

Facci sapere.

L'apostrofo deovrebbe essere irrilevante: è il nome della traccia nell'indice che secondo me non deve per forza corrispondere a quella del file...

Sono curioso di capire perché mai EAC estrae bene e non funziona regolarmente il processo inverso...
avatar
ingemar
Membro classe bronzo
Membro classe bronzo

Data d'iscrizione : 01.04.09
Numero di messaggi : 1578
Località : GE
Impianto : sorgenti: Marantz CD63SE, SYSTEMDEK IIX con Stanton 681 EEE MkII-S;
pre: QUAD 33
finale: QUAD 303;
speaker: Tannoy Cambridge T-115

http://www.yellowblueandgreen.com/

Torna in alto Andare in basso

Re: [EAC] Error in cue sheet

Messaggio  Silver Black il Lun 17 Ago 2009 - 14:04

@ingemar ha scritto:L'apostrofo deovrebbe essere irrilevante: è il nome della traccia nell'indice che secondo me non deve per forza corrispondere a quella del file...

Prova, guarda che è rilevantissimo! Il nome del file indicato devo corrispondere esattamente al nome del file su disco, in tutto e per tutto.

_________________
T-Forum, non solo classe T.
www.tforumhifi.com

Se ti piace la fotografia iscriviti a Lucegrafia, il gruppo di fotografia per veri appassionati!
"Una fotografia prima la senti, poi la vedi". (Fabrizio Guerra, fotografo)
www.facebook.com/groups/lucegrafia
avatar
Silver Black
Amministratore
Amministratore

Data d'iscrizione : 04.02.08
Numero di messaggi : 15543
Località : Veneto, Italia
Occupazione/Hobby : Sviluppatore software - Istruttore di Muay Thai - Personal Trainer
Provincia (Città) : Vicenza (Bassano del Grappa)
Impianto :
Spoiler:
Impianto: ampli: VirtueTwo.2 + JT Dynamic Power Supply (30V, 10A, 300W); diffusori: Proson Conquest 6030 MKII; sorgente: Oppo DV970; cavi segnale: Monster Cable MKII; cavi potenza: Qed Micro






http://www.silvercybertech.com

Torna in alto Andare in basso

Re: [EAC] Error in cue sheet

Messaggio  ingemar il Lun 17 Ago 2009 - 14:15

@Silver Black ha scritto:
@ingemar ha scritto:L'apostrofo deovrebbe essere irrilevante: è il nome della traccia nell'indice che secondo me non deve per forza corrispondere a quella del file...

Prova, guarda che è rilevantissimo! Il nome del file indicato devo corrispondere esattamente al nome del file su disco, in tutto e per tutto.

Sì, ma secondo me in quel caso non è il nome del file!
Il file si può chimare "pippo", ma la canzone si può chiamare "giuseppe"
infatti, se guardi, nel .cue non è chiamato "file", ma solo
Codice:
TITLE "The Celebrated Polish Carillon using only the upper three keys of the piano''"
    PERFORMER "Natalia Janotha"
    INDEX 01 00:00:00
ovvero sono dati descrittivi inseriti nell'index (e nel cd-text, se supportato)...
Il nome del file è
Codice:
FILE "01 - Natalia Janotha - The Celebrated Polish Carillon using only the upper three keys of the piano.flac" WAVE
, infatti!
avatar
ingemar
Membro classe bronzo
Membro classe bronzo

Data d'iscrizione : 01.04.09
Numero di messaggi : 1578
Località : GE
Impianto : sorgenti: Marantz CD63SE, SYSTEMDEK IIX con Stanton 681 EEE MkII-S;
pre: QUAD 33
finale: QUAD 303;
speaker: Tannoy Cambridge T-115

http://www.yellowblueandgreen.com/

Torna in alto Andare in basso

Re: [EAC] Error in cue sheet

Messaggio  Silver Black il Lun 17 Ago 2009 - 18:21

Ma infatti la voce TITLE può essere quella che vuoi, mentre FILE dev'essere il nome esatto.

A me è capitato tutte le volte che un album con tracce .APE non avesse il file .cue corretto e NERO mi sputasse in faccia, allora ho modificato l'estensione del file da wav in .ape e tutto ha funzionato. Almeno questo è quello che ricordo.

_________________
T-Forum, non solo classe T.
www.tforumhifi.com

Se ti piace la fotografia iscriviti a Lucegrafia, il gruppo di fotografia per veri appassionati!
"Una fotografia prima la senti, poi la vedi". (Fabrizio Guerra, fotografo)
www.facebook.com/groups/lucegrafia
avatar
Silver Black
Amministratore
Amministratore

Data d'iscrizione : 04.02.08
Numero di messaggi : 15543
Località : Veneto, Italia
Occupazione/Hobby : Sviluppatore software - Istruttore di Muay Thai - Personal Trainer
Provincia (Città) : Vicenza (Bassano del Grappa)
Impianto :
Spoiler:
Impianto: ampli: VirtueTwo.2 + JT Dynamic Power Supply (30V, 10A, 300W); diffusori: Proson Conquest 6030 MKII; sorgente: Oppo DV970; cavi segnale: Monster Cable MKII; cavi potenza: Qed Micro






http://www.silvercybertech.com

Torna in alto Andare in basso

Re: [EAC] Error in cue sheet

Messaggio  ingemar il Lun 17 Ago 2009 - 18:26

[quote=\"Silver Black\"]Ma infatti la voce TITLE può essere quella che vuoi, mentre FILE dev\'essere il nome esatto.

A me è capitato tutte le volte che un album con tracce .APE non avesse il file .cue corretto e NERO mi sputasse in faccia, allora ho modificato l\'estensione del file da wav in .ape e tutto ha funzionato. Almeno questo è quello che ricordo.[/quote]

Era una doppia virgoletta anche nel FILE, alla fine!
grazie a tutti!!


Ultima modifica di ingemar il Lun 17 Ago 2009 - 18:35, modificato 1 volta
avatar
ingemar
Membro classe bronzo
Membro classe bronzo

Data d'iscrizione : 01.04.09
Numero di messaggi : 1578
Località : GE
Impianto : sorgenti: Marantz CD63SE, SYSTEMDEK IIX con Stanton 681 EEE MkII-S;
pre: QUAD 33
finale: QUAD 303;
speaker: Tannoy Cambridge T-115

http://www.yellowblueandgreen.com/

Torna in alto Andare in basso

Re: [EAC] Error in cue sheet

Messaggio  Silver Black il Lun 17 Ago 2009 - 18:33

@ingemar ha scritto:Sì, d'accordo...ma la virgoletta in più è nel TITLE, mica nel FILE!

Allora avevo visto male, scusa.
Comunque il problema, quando è capitato a me, si è sempre risolto rinominando la voce "FILE" immettendo il nome di file corretto completo di estensione (che, ripeto, deve rispecchiare esattamente il file nella stessa cartella in cui è presente il .cue).

_________________
T-Forum, non solo classe T.
www.tforumhifi.com

Se ti piace la fotografia iscriviti a Lucegrafia, il gruppo di fotografia per veri appassionati!
"Una fotografia prima la senti, poi la vedi". (Fabrizio Guerra, fotografo)
www.facebook.com/groups/lucegrafia
avatar
Silver Black
Amministratore
Amministratore

Data d'iscrizione : 04.02.08
Numero di messaggi : 15543
Località : Veneto, Italia
Occupazione/Hobby : Sviluppatore software - Istruttore di Muay Thai - Personal Trainer
Provincia (Città) : Vicenza (Bassano del Grappa)
Impianto :
Spoiler:
Impianto: ampli: VirtueTwo.2 + JT Dynamic Power Supply (30V, 10A, 300W); diffusori: Proson Conquest 6030 MKII; sorgente: Oppo DV970; cavi segnale: Monster Cable MKII; cavi potenza: Qed Micro






http://www.silvercybertech.com

Torna in alto Andare in basso

Re: [EAC] Error in cue sheet

Messaggio  ingemar il Lun 17 Ago 2009 - 18:36

@Silver Black ha scritto:
@ingemar ha scritto:Sì, d'accordo...ma la virgoletta in più è nel TITLE, mica nel FILE!

Allora avevo visto male, scusa.
Comunque il problema, quando è capitato a me, si è sempre risolto rinominando la voce "FILE" immettendo il nome di file corretto completo di estensione (che, ripeto, deve rispecchiare esattamente il file nella stessa cartella in cui è presente il .cue).

ho editato, era proprio quella virgoletta...
avatar
ingemar
Membro classe bronzo
Membro classe bronzo

Data d'iscrizione : 01.04.09
Numero di messaggi : 1578
Località : GE
Impianto : sorgenti: Marantz CD63SE, SYSTEMDEK IIX con Stanton 681 EEE MkII-S;
pre: QUAD 33
finale: QUAD 303;
speaker: Tannoy Cambridge T-115

http://www.yellowblueandgreen.com/

Torna in alto Andare in basso

Re: [EAC] Error in cue sheet

Messaggio  Silver Black il Lun 17 Ago 2009 - 18:52

@ingemar ha scritto:ho editato, era proprio quella virgoletta...

Rolling Eyes Wink Oki

_________________
T-Forum, non solo classe T.
www.tforumhifi.com

Se ti piace la fotografia iscriviti a Lucegrafia, il gruppo di fotografia per veri appassionati!
"Una fotografia prima la senti, poi la vedi". (Fabrizio Guerra, fotografo)
www.facebook.com/groups/lucegrafia
avatar
Silver Black
Amministratore
Amministratore

Data d'iscrizione : 04.02.08
Numero di messaggi : 15543
Località : Veneto, Italia
Occupazione/Hobby : Sviluppatore software - Istruttore di Muay Thai - Personal Trainer
Provincia (Città) : Vicenza (Bassano del Grappa)
Impianto :
Spoiler:
Impianto: ampli: VirtueTwo.2 + JT Dynamic Power Supply (30V, 10A, 300W); diffusori: Proson Conquest 6030 MKII; sorgente: Oppo DV970; cavi segnale: Monster Cable MKII; cavi potenza: Qed Micro






http://www.silvercybertech.com

Torna in alto Andare in basso

Re: [EAC] Error in cue sheet

Messaggio  Contenuto sponsorizzato


Contenuto sponsorizzato


Torna in alto Andare in basso

Torna in alto


 
Permessi di questa sezione del forum:
Non puoi rispondere agli argomenti in questo forum