T-Forum, la vera HiFi alla portata di tutti
Benvenuto nel T-Forum!
Connettiti in modo da farti riconoscere come membro affezionato, oppure registrati così potrai partecipare attivamente alle discussioni.
Ultimi argomenti
» A proposito del Milano Hi-Fidelity 2018...
Oggi alle 11:47 Da scontin

» ALIENTEK D8 [parte 2]
Oggi alle 11:47 Da Nadir81

» Diffusori IKEA Eneby
Oggi alle 10:44 Da lello64

» Satorique 3 - Kit diffusori con SB Acoustic Satori
Oggi alle 9:46 Da dinamanu

» [PLEXIGLASS] consulenza elettrotecnica
Oggi alle 9:14 Da crazyforduff

» Aiuto Varie Regolazioni Giradischi
Ieri alle 21:36 Da raf72

» Problema con Teac pls-75d 5.1
Ieri alle 20:51 Da denzelsavington

» puntina orfofon giradischi tensione d'uscita alta mV
Ieri alle 18:55 Da solitario

» Sostituzione altoparlanti tv da 10w Sony KD85/XD85xx . 65pollici
Ieri alle 17:12 Da Salvatore57

» [RM/NA] Vendo ONKYO A9010 - €150 + sp
Ieri alle 17:03 Da voolkano

» Kef LS50 o...
Ieri alle 15:11 Da Alessiox

» Pre Phono giusto per questa configurazione
Ieri alle 13:36 Da Gian Luca Porzio

» Dopo RaspyFi ecco Volumio - Music player audiofilo multipiattaforma
Ieri alle 11:05 Da ally

» Quale amplificatore? Diffusori AR66BX
Ieri alle 11:00 Da GioPre

» Musica di qualità per testare il proprio impianto
Ieri alle 9:45 Da silver surfer

» Fullrange 8ohm e supertweeter 6ohm?
Ieri alle 9:31 Da windopz

»  impianto liquida fanless ,ali lineari recuperati zigmahornet e cineserie varie.Una prova in divenire(500euro quasi tutto compreso)
Ieri alle 9:15 Da giucam61

» Project pre dac s2
Ieri alle 0:46 Da nelson1

» Consiglio trasporto USB/SPDIF sotto i 100 euro
Mar 17 Apr 2018 - 21:33 Da dinamanu

» Vendo amplificatore integrato ibrido Peachtree iNova
Mar 17 Apr 2018 - 21:30 Da p.cristallini

» Preamplificatore Billy by Maurarte
Mar 17 Apr 2018 - 20:21 Da MaxBal

» Consiglio su diffusori
Mar 17 Apr 2018 - 16:35 Da Syd&Lucy

» Relè Matsushita JD2-DC24V per ampli Proton introvabile...
Mar 17 Apr 2018 - 16:21 Da dinamanu

» Sabaj A3 vs altri...(AD18, D8)
Mar 17 Apr 2018 - 15:00 Da mah(x)

» CERCO crossower elettronico 3 vie
Mar 17 Apr 2018 - 14:46 Da Albert^ONE

» Vendo crossover attivo AUDISON SXR4 a 200 euro trattabili
Mar 17 Apr 2018 - 14:45 Da Albert^ONE

» Condensatore Procond MKP (Hiraga)
Mar 17 Apr 2018 - 14:31 Da MetalBat

» LS3/5, così, giusto per parlare...
Mar 17 Apr 2018 - 12:54 Da giucam61

» Tri-amping con TA2024 e crossover digitale
Lun 16 Apr 2018 - 22:46 Da voolkano

» Modifiche su Dayton DTA-100a
Lun 16 Apr 2018 - 21:59 Da Olegol

Statistiche
Abbiamo 11592 membri registrati
L'ultimo utente registrato è raf72

I nostri membri hanno inviato un totale di 811200 messaggi in 52684 argomenti
I postatori più attivi della settimana
dinamanu
 
sportyerre
 
giucam61
 
Nadir81
 
fritznet
 
kalium
 
MetalBat
 
silver surfer
 
mr.manalog
 
lello64
 

I postatori più attivi del mese
dinamanu
 
lello64
 
sportyerre
 
giucam61
 
Nadir81
 
kalium
 
fritznet
 
nerone
 
valterneri
 
GP9
 

Migliori postatori
Stentor (20392)
 
DACCLOR65 (19633)
 
schwantz34 (15614)
 
Silver Black (15525)
 
nd1967 (12810)
 
flovato (12509)
 
Biagio De Simone (10294)
 
piero7 (9854)
 
fritznet (9458)
 
wasky (9229)
 

Chi è online?
In totale ci sono 57 utenti in linea: 7 Registrati, 1 Nascosto e 49 Ospiti :: 2 Motori di ricerca

ally, crazyforduff, enrico massa, Gian Luca Porzio, nerone, valterneri, voolkano

[ Vedere la lista completa ]


Il numero massimo di utenti online contemporaneamente è stato 4379 il Lun 25 Mag 2015 - 15:01
Flusso RSS


Yahoo! 
MSN 
AOL 
Netvibes 
Bloglines 


Bookmarking sociale

Bookmarking sociale digg  Bookmarking sociale delicious  Bookmarking sociale reddit  Bookmarking sociale stumbleupon  Bookmarking sociale slashdot  Bookmarking sociale yahoo  Bookmarking sociale google  Bookmarking sociale blogmarks  Bookmarking sociale live      




Conserva e condividi l'indirizzo di T-Forum, la vera HiFi alla portata di tutti sul tuo sito sociale bookmarking


[EAC] Error in cue sheet

Andare in basso

[EAC] Error in cue sheet

Messaggio  ingemar il Lun 17 Ago 2009 - 0:36

E' da un po' che recupero (legalmente!) file .flac da masterizzarmi su cd con EAC. Tutti ben rippati (sempre con EAC) e accompagnati da file .cue.
Quando lancuio quest'ultimo, a vole funziona e mi crea un bellissimo cd con indici come dovrebbero essere, in altri casi ricevo un messaggio di errore come questo
e la riga 7 è il nome del file tra virgolette
Sia che converta con flac frontend che lasci così il flac (lasciando convertire ad EAC), non riesco a venirne a capo. Googlando sembrebebbe che il nome del file sia diverso da quello sul cue, ma non è così. Il .cue è, dove dovrebbe essere, nel folder insieme ai flac (e ai wav). Non so neanche come editarlo, a questo punto, visto che tutto corrisponde (e, soprattutto, non dovrebbe esserci incompatibilità tra un .cue creato ieri da EAC e la sua reversibilità, sempre su EAC)
Visto che è un problema che riscontro assai spesso, non è possibile che io sia l'unico, quindi chiedo: voi come risolvete?
Rolling Eyes

allego, per conoscenza, tutto il file .cue, se può essere d'aiuto (spero di sì!)

Codice:
REM GENRE Various
REM DATE 2009
REM DISCID B30AF00D
REM COMMENT "ExactAudioCopy v0.99pb4"
PERFORMER "Various"
TITLE "Jónsi & Alex - Rain Down My Favorite Songs"
FILE "01 - Natalia Janotha - The Celebrated Polish Carillon using only the upper three keys of the piano'.wav" WAVE
  TRACK 01 AUDIO
    TITLE "The Celebrated Polish Carillon using only the upper three keys of the piano''"
    PERFORMER "Natalia Janotha"
    INDEX 01 00:00:00
  TRACK 02 AUDIO
    TITLE "Ave Maria"
    PERFORMER "Alessandro Moreschi"
    INDEX 00 00:55:51
FILE "02 - Alessandro Moreschi - Ave Maria.wav" WAVE
    INDEX 01 00:00:00
  TRACK 03 AUDIO
    TITLE "Voggubarnsins Mál"
    PERFORMER "Smárakvartettinn Á Akureyri"
    INDEX 00 03:14:02
FILE "03 - Smárakvartettinn Á Akureyri - Voggubarnsins Mál.wav" WAVE
    INDEX 01 00:00:00
  TRACK 04 AUDIO
    TITLE "Mother's Last Word To Her Son"
    PERFORMER "Washington Phillips"
    INDEX 00 02:46:31
FILE "04 - Washington Phillips - Mother's Last Word To Her Son.wav" WAVE
    INDEX 01 00:00:00
FILE "05 - Django Reinhardt - Doux Sourire.wav" WAVE
  TRACK 05 AUDIO
    TITLE "Doux Sourire"
    PERFORMER "Django Reinhardt"
    INDEX 01 00:00:00
  TRACK 06 AUDIO
    TITLE "The Gypsie Laddie"
    PERFORMER "John Jacob Niles"
    INDEX 00 02:49:69
FILE "06 - John Jacob Niles - The Gypsie Laddie.wav" WAVE
    INDEX 01 00:00:00
  TRACK 07 AUDIO
    TITLE "I Can't Believe You're In Love With Me"
    PERFORMER "Billie Holiday"
    INDEX 00 03:32:65
FILE "07 - Billie Holiday - I Can't Believe You're In Love With Me.wav" WAVE
    INDEX 01 00:00:00
  TRACK 08 AUDIO
    TITLE "Parlez-Moi D'Amour"
    PERFORMER "Lucienne Boyer"
    INDEX 00 02:49:43
FILE "08 - Lucienne Boyer - Parlez-Moi D'Amour.wav" WAVE
    INDEX 01 00:00:00
  TRACK 09 AUDIO
    TITLE "Marche Funèbre"
    PERFORMER "Raoul Pugno"
    INDEX 00 02:57:13
FILE "09 - Raoul Pugno - Marche Funèbre.wav" WAVE
    INDEX 01 00:00:00
FILE "10 - Audrey Hepburn - Moon River.wav" WAVE
  TRACK 10 AUDIO
    TITLE "Moon River"
    PERFORMER "Audrey Hepburn"
    INDEX 01 00:00:00
  TRACK 11 AUDIO
    TITLE "John Cassevetes (2)"
    PERFORMER "Ekkehard Ehlers"
    INDEX 00 02:02:72
FILE "11 - Ekkehard Ehlers - John Cassevetes (2).wav" WAVE
    INDEX 01 00:00:00
  TRACK 12 AUDIO
    TITLE "A Candy Coated Slow Down"
    PERFORMER "John Somers"
    INDEX 00 09:57:51
FILE "12 - John Somers - A Candy Coated Slow Down.wav" WAVE
    INDEX 01 00:00:00
  TRACK 13 AUDIO
    TITLE "When You Wish Upon A Star"
    PERFORMER "Cliff 'Ukulele Ike' Edwards"
    INDEX 00 05:04:30
FILE "13 - Cliff 'Ukulele Ike' Edwards - When You Wish Upon A Star.wav" WAVE
    INDEX 01 00:00:00


Ultima modifica di ingemar il Lun 17 Ago 2009 - 13:41, modificato 1 volta
avatar
ingemar
Membro classe bronzo
Membro classe bronzo

Data d'iscrizione : 01.04.09
Numero di messaggi : 1578
Località : GE
Impianto : sorgenti: Marantz CD63SE, SYSTEMDEK IIX con Stanton 681 EEE MkII-S;
pre: QUAD 33
finale: QUAD 303;
speaker: Tannoy Cambridge T-115

http://www.yellowblueandgreen.com/

Tornare in alto Andare in basso

Re: [EAC] Error in cue sheet

Messaggio  pippo1999 il Lun 17 Ago 2009 - 1:03

accorcia il nome del file .wav

pippo1999
Affezionato
Affezionato

Data d'iscrizione : 02.07.09
Numero di messaggi : 117
Località : Provincia di Napoli
Occupazione/Hobby : Programmatore / Ciclismo, musica
Impianto : PopPulse T150+Chario s200+Wap 2200+Dac 707 usb, Ta3020+Klipsh RF82

Tornare in alto Andare in basso

Re: [EAC] Error in cue sheet

Messaggio  ingemar il Lun 17 Ago 2009 - 1:13

@pippo1999 ha scritto:accorcia il nome del file .wav

intendi del primo? niente, stesso errore, anche dimezzando la lunghezza...
avatar
ingemar
Membro classe bronzo
Membro classe bronzo

Data d'iscrizione : 01.04.09
Numero di messaggi : 1578
Località : GE
Impianto : sorgenti: Marantz CD63SE, SYSTEMDEK IIX con Stanton 681 EEE MkII-S;
pre: QUAD 33
finale: QUAD 303;
speaker: Tannoy Cambridge T-115

http://www.yellowblueandgreen.com/

Tornare in alto Andare in basso

Re: [EAC] Error in cue sheet

Messaggio  Silver Black il Lun 17 Ago 2009 - 2:10

Ma questo:

Codice:
01 - Natalia Janotha - The Celebrated Polish Carillon using only the upper three keys of the piano'.wav

Equivale al nome del file .wav nella cartella corretta? Cos'è quell'apostrofo dopo la parola "piano"? Rinomina file e stringa cosi:

Codice:
01 - Natalia Janotha - The Celebrated Polish Carillon.wav

Facci sapere.

_________________
T-Forum, non solo classe T.
www.tforumhifi.com

Se ti piace la fotografia iscriviti a Lucegrafia, il gruppo di fotografia per veri appassionati!
"Una fotografia prima la senti, poi la vedi". (Fabrizio Guerra, fotografo)
www.facebook.com/groups/lucegrafia
avatar
Silver Black
Amministratore
Amministratore

Data d'iscrizione : 04.02.08
Numero di messaggi : 15525
Località : Veneto, Italia
Occupazione/Hobby : Sviluppatore software - Istruttore di Muay Thai - Personal Trainer
Provincia (Città) : Vicenza (Bassano del Grappa)
Impianto :
Spoiler:
Impianto: ampli: VirtueTwo.2 + JT Dynamic Power Supply (30V, 10A, 300W); diffusori: Proson Conquest 6030 MKII; sorgente: Oppo DV970; cavi segnale: Monster Cable MKII; cavi potenza: Qed Micro






http://www.silvercybertech.com

Tornare in alto Andare in basso

Re: [EAC] Error in cue sheet

Messaggio  Smanetton il Lun 17 Ago 2009 - 7:22

@ingemar ha scritto:Quando lancio quest'ultimo, a vole funziona e mi crea un bellissimo cd con indici come dovrebbero essere, in altri casi ricevo un messaggio di errore come questo
e la riga 7 è il nome del file tra virgolette
Il perché questo succede non lo so e non ho mai indagato. Ma soluzione al problema è semplicissima.
Dopo aver aperto il file .cue con un editor di testo (Notepad va benissimo), si modifica il nome del file in esso presente, rendendolo esattamente identico a quello del file .flac / .ape / .wav esistente.
Poi si chiude salvando il file .cue e il gioco è fatto.

Quindi:
Codice:
...
FILE "01 - Natalia Janotha - The Celebrated Polish Carillon using only the upper three keys of the piano.flac" WAVE
...
e nome file:
01 - Natalia Janotha - The Celebrated Polish Carillon using only the upper three keys of the piano.flac
avatar
Smanetton
Membro classe argento
Membro classe argento

Data d'iscrizione : 30.08.08
Numero di messaggi : 2888
Località : Torino
Occupazione/Hobby : Troooppo interessanti!
Provincia (Città) : Torino
Impianto : Nel campo centrale: PC, WaveIo+Audio-gd NFB-12, Notsobad A2x-pro (TA2024 al top!), Mission 780. Nei campi laterali: altri campioni Tripath.

Tornare in alto Andare in basso

Re: [EAC] Error in cue sheet

Messaggio  ingemar il Lun 17 Ago 2009 - 7:57

proverò nel pomeriggio. grassie!
avatar
ingemar
Membro classe bronzo
Membro classe bronzo

Data d'iscrizione : 01.04.09
Numero di messaggi : 1578
Località : GE
Impianto : sorgenti: Marantz CD63SE, SYSTEMDEK IIX con Stanton 681 EEE MkII-S;
pre: QUAD 33
finale: QUAD 303;
speaker: Tannoy Cambridge T-115

http://www.yellowblueandgreen.com/

Tornare in alto Andare in basso

Re: [EAC] Error in cue sheet

Messaggio  Radiofaro il Lun 17 Ago 2009 - 13:21

@Smanetton ha scritto:
@ingemar ha scritto:Quando lancio quest'ultimo, a vole funziona e mi crea un bellissimo cd con indici come dovrebbero essere, in altri casi ricevo un messaggio di errore come questo
e la riga 7 è il nome del file tra virgolette
Il perché questo succede non lo so e non ho mai indagato. Ma soluzione al problema è semplicissima.
Dopo aver aperto il file .cue con un editor di testo (Notepad va benissimo), si modifica il nome del file in esso presente, rendendolo esattamente identico a quello del file .flac / .ape / .wav esistente.
Poi si chiude salvando il file .cue e il gioco è fatto.

Quindi:
Codice:
...
FILE "01 - Natalia Janotha - The Celebrated Polish Carillon using only the upper three keys of the piano.flac" WAVE
...
e nome file:
01 - Natalia Janotha - The Celebrated Polish Carillon using only the upper three keys of the piano.flac

grazie allo "Smanetton" , con lo splendido EAC me la cavo benino;
cambia l'estensione del file da .wav a .ape vedrai che funziona
avatar
Radiofaro
Membro classe argento
Membro classe argento

Data d'iscrizione : 09.02.09
Numero di messaggi : 2149
Località : Puglia
Impianto : Denon PMA 1500 AE, sorgente CDP 1500 AE, diffusori Proson 6020 mk2 (Ciarizzate), cavi di potenza: Dustùtz cable; cavi segnale: byVicè

Tornare in alto Andare in basso

Re: [EAC] Error in cue sheet

Messaggio  Silver Black il Lun 17 Ago 2009 - 13:44

Beh certo: il nome del file nel codice dev'essere IDENTICO a quello del nome del file reale, quindi anche l'estensione! Idea

_________________
T-Forum, non solo classe T.
www.tforumhifi.com

Se ti piace la fotografia iscriviti a Lucegrafia, il gruppo di fotografia per veri appassionati!
"Una fotografia prima la senti, poi la vedi". (Fabrizio Guerra, fotografo)
www.facebook.com/groups/lucegrafia
avatar
Silver Black
Amministratore
Amministratore

Data d'iscrizione : 04.02.08
Numero di messaggi : 15525
Località : Veneto, Italia
Occupazione/Hobby : Sviluppatore software - Istruttore di Muay Thai - Personal Trainer
Provincia (Città) : Vicenza (Bassano del Grappa)
Impianto :
Spoiler:
Impianto: ampli: VirtueTwo.2 + JT Dynamic Power Supply (30V, 10A, 300W); diffusori: Proson Conquest 6030 MKII; sorgente: Oppo DV970; cavi segnale: Monster Cable MKII; cavi potenza: Qed Micro






http://www.silvercybertech.com

Tornare in alto Andare in basso

Re: [EAC] Error in cue sheet

Messaggio  ingemar il Lun 17 Ago 2009 - 13:47

@Silver Black ha scritto:Ma questo:

Codice:
01 - Natalia Janotha - The Celebrated Polish Carillon using only the upper three keys of the piano'.wav

Equivale al nome del file .wav nella cartella corretta? Cos'è quell'apostrofo dopo la parola "piano"? Rinomina file e stringa cosi:

Codice:
01 - Natalia Janotha - The Celebrated Polish Carillon.wav

Facci sapere.

L'apostrofo deovrebbe essere irrilevante: è il nome della traccia nell'indice che secondo me non deve per forza corrispondere a quella del file...

Sono curioso di capire perché mai EAC estrae bene e non funziona regolarmente il processo inverso...
avatar
ingemar
Membro classe bronzo
Membro classe bronzo

Data d'iscrizione : 01.04.09
Numero di messaggi : 1578
Località : GE
Impianto : sorgenti: Marantz CD63SE, SYSTEMDEK IIX con Stanton 681 EEE MkII-S;
pre: QUAD 33
finale: QUAD 303;
speaker: Tannoy Cambridge T-115

http://www.yellowblueandgreen.com/

Tornare in alto Andare in basso

Re: [EAC] Error in cue sheet

Messaggio  Silver Black il Lun 17 Ago 2009 - 14:04

@ingemar ha scritto:L'apostrofo deovrebbe essere irrilevante: è il nome della traccia nell'indice che secondo me non deve per forza corrispondere a quella del file...

Prova, guarda che è rilevantissimo! Il nome del file indicato devo corrispondere esattamente al nome del file su disco, in tutto e per tutto.

_________________
T-Forum, non solo classe T.
www.tforumhifi.com

Se ti piace la fotografia iscriviti a Lucegrafia, il gruppo di fotografia per veri appassionati!
"Una fotografia prima la senti, poi la vedi". (Fabrizio Guerra, fotografo)
www.facebook.com/groups/lucegrafia
avatar
Silver Black
Amministratore
Amministratore

Data d'iscrizione : 04.02.08
Numero di messaggi : 15525
Località : Veneto, Italia
Occupazione/Hobby : Sviluppatore software - Istruttore di Muay Thai - Personal Trainer
Provincia (Città) : Vicenza (Bassano del Grappa)
Impianto :
Spoiler:
Impianto: ampli: VirtueTwo.2 + JT Dynamic Power Supply (30V, 10A, 300W); diffusori: Proson Conquest 6030 MKII; sorgente: Oppo DV970; cavi segnale: Monster Cable MKII; cavi potenza: Qed Micro






http://www.silvercybertech.com

Tornare in alto Andare in basso

Re: [EAC] Error in cue sheet

Messaggio  ingemar il Lun 17 Ago 2009 - 14:15

@Silver Black ha scritto:
@ingemar ha scritto:L'apostrofo deovrebbe essere irrilevante: è il nome della traccia nell'indice che secondo me non deve per forza corrispondere a quella del file...

Prova, guarda che è rilevantissimo! Il nome del file indicato devo corrispondere esattamente al nome del file su disco, in tutto e per tutto.

Sì, ma secondo me in quel caso non è il nome del file!
Il file si può chimare "pippo", ma la canzone si può chiamare "giuseppe"
infatti, se guardi, nel .cue non è chiamato "file", ma solo
Codice:
TITLE "The Celebrated Polish Carillon using only the upper three keys of the piano''"
    PERFORMER "Natalia Janotha"
    INDEX 01 00:00:00
ovvero sono dati descrittivi inseriti nell'index (e nel cd-text, se supportato)...
Il nome del file è
Codice:
FILE "01 - Natalia Janotha - The Celebrated Polish Carillon using only the upper three keys of the piano.flac" WAVE
, infatti!
avatar
ingemar
Membro classe bronzo
Membro classe bronzo

Data d'iscrizione : 01.04.09
Numero di messaggi : 1578
Località : GE
Impianto : sorgenti: Marantz CD63SE, SYSTEMDEK IIX con Stanton 681 EEE MkII-S;
pre: QUAD 33
finale: QUAD 303;
speaker: Tannoy Cambridge T-115

http://www.yellowblueandgreen.com/

Tornare in alto Andare in basso

Re: [EAC] Error in cue sheet

Messaggio  Silver Black il Lun 17 Ago 2009 - 18:21

Ma infatti la voce TITLE può essere quella che vuoi, mentre FILE dev'essere il nome esatto.

A me è capitato tutte le volte che un album con tracce .APE non avesse il file .cue corretto e NERO mi sputasse in faccia, allora ho modificato l'estensione del file da wav in .ape e tutto ha funzionato. Almeno questo è quello che ricordo.

_________________
T-Forum, non solo classe T.
www.tforumhifi.com

Se ti piace la fotografia iscriviti a Lucegrafia, il gruppo di fotografia per veri appassionati!
"Una fotografia prima la senti, poi la vedi". (Fabrizio Guerra, fotografo)
www.facebook.com/groups/lucegrafia
avatar
Silver Black
Amministratore
Amministratore

Data d'iscrizione : 04.02.08
Numero di messaggi : 15525
Località : Veneto, Italia
Occupazione/Hobby : Sviluppatore software - Istruttore di Muay Thai - Personal Trainer
Provincia (Città) : Vicenza (Bassano del Grappa)
Impianto :
Spoiler:
Impianto: ampli: VirtueTwo.2 + JT Dynamic Power Supply (30V, 10A, 300W); diffusori: Proson Conquest 6030 MKII; sorgente: Oppo DV970; cavi segnale: Monster Cable MKII; cavi potenza: Qed Micro






http://www.silvercybertech.com

Tornare in alto Andare in basso

Re: [EAC] Error in cue sheet

Messaggio  ingemar il Lun 17 Ago 2009 - 18:26

[quote=\"Silver Black\"]Ma infatti la voce TITLE può essere quella che vuoi, mentre FILE dev\'essere il nome esatto.

A me è capitato tutte le volte che un album con tracce .APE non avesse il file .cue corretto e NERO mi sputasse in faccia, allora ho modificato l\'estensione del file da wav in .ape e tutto ha funzionato. Almeno questo è quello che ricordo.[/quote]

Era una doppia virgoletta anche nel FILE, alla fine!
grazie a tutti!!


Ultima modifica di ingemar il Lun 17 Ago 2009 - 18:35, modificato 1 volta
avatar
ingemar
Membro classe bronzo
Membro classe bronzo

Data d'iscrizione : 01.04.09
Numero di messaggi : 1578
Località : GE
Impianto : sorgenti: Marantz CD63SE, SYSTEMDEK IIX con Stanton 681 EEE MkII-S;
pre: QUAD 33
finale: QUAD 303;
speaker: Tannoy Cambridge T-115

http://www.yellowblueandgreen.com/

Tornare in alto Andare in basso

Re: [EAC] Error in cue sheet

Messaggio  Silver Black il Lun 17 Ago 2009 - 18:33

@ingemar ha scritto:Sì, d'accordo...ma la virgoletta in più è nel TITLE, mica nel FILE!

Allora avevo visto male, scusa.
Comunque il problema, quando è capitato a me, si è sempre risolto rinominando la voce "FILE" immettendo il nome di file corretto completo di estensione (che, ripeto, deve rispecchiare esattamente il file nella stessa cartella in cui è presente il .cue).

_________________
T-Forum, non solo classe T.
www.tforumhifi.com

Se ti piace la fotografia iscriviti a Lucegrafia, il gruppo di fotografia per veri appassionati!
"Una fotografia prima la senti, poi la vedi". (Fabrizio Guerra, fotografo)
www.facebook.com/groups/lucegrafia
avatar
Silver Black
Amministratore
Amministratore

Data d'iscrizione : 04.02.08
Numero di messaggi : 15525
Località : Veneto, Italia
Occupazione/Hobby : Sviluppatore software - Istruttore di Muay Thai - Personal Trainer
Provincia (Città) : Vicenza (Bassano del Grappa)
Impianto :
Spoiler:
Impianto: ampli: VirtueTwo.2 + JT Dynamic Power Supply (30V, 10A, 300W); diffusori: Proson Conquest 6030 MKII; sorgente: Oppo DV970; cavi segnale: Monster Cable MKII; cavi potenza: Qed Micro






http://www.silvercybertech.com

Tornare in alto Andare in basso

Re: [EAC] Error in cue sheet

Messaggio  ingemar il Lun 17 Ago 2009 - 18:36

@Silver Black ha scritto:
@ingemar ha scritto:Sì, d'accordo...ma la virgoletta in più è nel TITLE, mica nel FILE!

Allora avevo visto male, scusa.
Comunque il problema, quando è capitato a me, si è sempre risolto rinominando la voce "FILE" immettendo il nome di file corretto completo di estensione (che, ripeto, deve rispecchiare esattamente il file nella stessa cartella in cui è presente il .cue).

ho editato, era proprio quella virgoletta...
avatar
ingemar
Membro classe bronzo
Membro classe bronzo

Data d'iscrizione : 01.04.09
Numero di messaggi : 1578
Località : GE
Impianto : sorgenti: Marantz CD63SE, SYSTEMDEK IIX con Stanton 681 EEE MkII-S;
pre: QUAD 33
finale: QUAD 303;
speaker: Tannoy Cambridge T-115

http://www.yellowblueandgreen.com/

Tornare in alto Andare in basso

Re: [EAC] Error in cue sheet

Messaggio  Silver Black il Lun 17 Ago 2009 - 18:52

@ingemar ha scritto:ho editato, era proprio quella virgoletta...

Rolling Eyes Wink Oki

_________________
T-Forum, non solo classe T.
www.tforumhifi.com

Se ti piace la fotografia iscriviti a Lucegrafia, il gruppo di fotografia per veri appassionati!
"Una fotografia prima la senti, poi la vedi". (Fabrizio Guerra, fotografo)
www.facebook.com/groups/lucegrafia
avatar
Silver Black
Amministratore
Amministratore

Data d'iscrizione : 04.02.08
Numero di messaggi : 15525
Località : Veneto, Italia
Occupazione/Hobby : Sviluppatore software - Istruttore di Muay Thai - Personal Trainer
Provincia (Città) : Vicenza (Bassano del Grappa)
Impianto :
Spoiler:
Impianto: ampli: VirtueTwo.2 + JT Dynamic Power Supply (30V, 10A, 300W); diffusori: Proson Conquest 6030 MKII; sorgente: Oppo DV970; cavi segnale: Monster Cable MKII; cavi potenza: Qed Micro






http://www.silvercybertech.com

Tornare in alto Andare in basso

Re: [EAC] Error in cue sheet

Messaggio  Contenuto sponsorizzato


Contenuto sponsorizzato


Tornare in alto Andare in basso

Tornare in alto


 
Permessi di questa sezione del forum:
Non puoi rispondere agli argomenti in questo forum